Trang 1/11 1 2 3 ... Cuối cùngCuối cùng
Kết quả từ 1 tới 10 trên 104
  1. #1
    HD-upscale minhnamvn2003's Avatar
    Đăng ký
    30-05-11
    Bài viết
    10
    Thanks
    13
    Thanked
    64
    cR
    24

    Mặc định CHIA SẺ PHIM 3D CHO ĐIỆN THOẠI 3D KHÔNG KÍNH

    Mạn phép các Mod, tôi lập lên topic này, mong muốn anh em, các bạn nào có phim 3D cho điện thoại không kính thì post lên nhé !
    Đây là vài clip:
    http://www.megaupload.com/?d=ZTRU7D4P
    http://www.mediafire.com/?ka18fy7fhr8s2
    http://www.multiupload.com/TNQ9DUGZ2K
    http://www.mediafire.com/?jabxjhh7hrepm
    http://www.mediafire.com/?wl918ji5u79b4
    Mong các bạn nhiệt tình ủng hộ!!!!
    Lưu ý:

    *Các Video chia sẻ phải có chuẩn HD hoặc FULL HD
    * Để chạy được trên EVO 3D hoặc LG và không phải Convert lại các bạn chỉ chia sẻ các VIDEO 3D với định dạng *.mp4 or .mkv và kiểu SIDE by SIDE ( Màn hình trập)
    Note: các bạn có thể sưu tầm, nhưng nhớ ghi rõ nguồn, không người ta lại bảo là.....


    -----------------------------------------------------------------
    Chỉnh sửa nội dung bởi: minhnamvn2003, 14-01-2012 lúc 10:20


  2. #2
    HD-upscale minhnamvn2003's Avatar
    Đăng ký
    30-05-11
    Bài viết
    10
    Thanks
    13
    Thanked
    64
    cR
    24

    Mặc định Ðề: CHIA SẺ PHIM 3D CHO ĐIỆN THOẠI 3D KHÔNG KÍNH

    Thêm 1 clip nữa nè: TOP GIRL.mp4, cái này em copy link của chủ thớt quyenlthp, mong thứ lỗi

  3. 5 người đã cảm ơn minhnamvn2003


  4. #3
    HD-upscale minhnamvn2003's Avatar
    Đăng ký
    30-05-11
    Bài viết
    10
    Thanks
    13
    Thanked
    64
    cR
    24

    Mặc định Ðề: CHIA SẺ PHIM 3D CHO ĐIỆN THOẠI 3D KHÔNG KÍNH

    và thêm 1 em nữa: Pub Haribo 3D_Full-HD.mp4

  5. 4 người đã cảm ơn minhnamvn2003


  6. #4
    HD-upscale minhnamvn2003's Avatar
    Đăng ký
    30-05-11
    Bài viết
    10
    Thanks
    13
    Thanked
    64
    cR
    24

    Mặc định Ðề: CHIA SẺ PHIM 3D CHO ĐIỆN THOẠI 3D KHÔNG KÍNH

    The Final Destination 4 - 3D Half SBS - Việt sub

    Phim được đánh giá là một trong các phim 3D real có hiệu ứng 3D tốt nhất.

    Media info:
    Code:

    General
    Complete name : M:\3D\The Final Destination 5\The Final Destination 3D Half-SBS - AQUA\The Final Destination 3D Half-SBS~1.mp4
    Format : MPEG-4
    Format profile : Base Media / Version 2
    Codec ID : mp42
    File size : 2.01 GiB
    Duration : 1h 21mn
    Overall bit rate mode : Variable
    Overall bit rate : 3 531 Kbps
    Encoded date : UTC 2011-12-17 08:47:22
    Tagged date : UTC 2011-12-17 08:53:27
    Writing application : mp4creator 1.6.1d

    Video
    ID : 1
    Format : AVC
    Format/Info : Advanced Video Codec
    Format profile : High@L3.0
    Format settings, CABAC : No
    Format settings, ReFrames : 1 frame
    Codec ID : avc1
    Codec ID/Info : Advanced Video Coding
    Duration : 1h 21mn
    Bit rate mode : Variable
    Bit rate : 3 338 Kbps
    Width : 960 pixels
    Height : 544 pixels
    Original height : 540 pixels
    Display aspect ratio : 16:9
    Original display aspect ratio : 16:9
    Frame rate mode : Variable
    Frame rate : 23.976 fps
    Minimum frame rate : 23.974 fps
    Maximum frame rate : 23.981 fps
    Color space : YUV
    Chroma subsampling : 4:2:0
    Bit depth : 8 bits
    Scan type : Progressive
    Bits/(Pixel*Frame) : 0.267
    Stream size : 1.90 GiB (95%)
    Language : English
    Encoded date : UTC 2011-12-17 08:47:22
    Tagged date : UTC 2011-12-17 08:53:02

    Audio
    ID : 2
    Format : AAC
    Format/Info : Advanced Audio Codec
    Format profile : LC
    Codec ID : 40
    Duration : 1h 21mn
    Bit rate mode : Variable
    Bit rate : 192 Kbps
    Maximum bit rate : 241 Kbps
    Channel(s) : 2 channels
    Channel positions : Front: L R
    Sampling rate : 48.0 KHz
    Compression mode : Lossy
    Stream size : 111 MiB (5%)
    Language : English
    Encoded date : UTC 2011-12-17 08:53:02
    Tagged date : UTC 2011-12-17 08:53:27

    Click this bar to view the original image of 800x450px.


    Download: Free File Sharing Made Simple - MediaFire

    * Đây là phần 4 trong loạt phim Final Destination. Lưu ý là phim có nhiều cảnh tai nạn khá rùng rợn không thích hợp với trẻ em.

    Nguồn: Bin21, pdaviet


  7. #5
    HD-upscale minhnamvn2003's Avatar
    Đăng ký
    30-05-11
    Bài viết
    10
    Thanks
    13
    Thanked
    64
    cR
    24

    Mặc định Ðề: CHIA SẺ PHIM 3D CHO ĐIỆN THOẠI 3D KHÔNG KÍNH

    Final Destination 5 - Sub Việt

    Phim mới nhất (2011) của loạt phim Final Destination. Phim này theo tôi nhận xét là hay nhất và cũng "ghê" nhất so vơi các phim trước.

    Media ìno:
    Code:

    General
    Complete name : N:\Phim 3D EVO \Final Destination 5 Half-SBS\Final+Destination+5+Half-SBS\Final Destination 5 Half-SBS.mp4
    Format : MPEG-4
    Format profile : Base Media / Version 2
    Codec ID : mp42
    File size : 2.04 GiB
    Duration : 1h 31mn
    Overall bit rate mode : Variable
    Overall bit rate : 3 188 Kbps
    Encoded date : UTC 2011-12-24 18:29:23
    Tagged date : UTC 2011-12-24 18:34:55
    Writing application : mp4creator 1.6.1d

    Video
    ID : 1
    Format : AVC
    Format/Info : Advanced Video Codec
    Format profile : High@L3.0
    Format settings, CABAC : No
    Format settings, ReFrames : 1 frame
    Codec ID : avc1
    Codec ID/Info : Advanced Video Coding
    Duration : 1h 31mn
    Bit rate mode : Variable
    Bit rate : 2 996 Kbps
    Width : 960 pixels
    Height : 544 pixels
    Original height : 540 pixels
    Display aspect ratio : 16:9
    Original display aspect ratio : 16:9
    Frame rate mode : Variable
    Frame rate : 23.976 fps
    Minimum frame rate : 23.974 fps
    Maximum frame rate : 23.981 fps
    Color space : YUV
    Chroma subsampling : 4:2:0
    Bit depth : 8 bits
    Scan type : Progressive
    Bits/(Pixel*Frame) : 0.239
    Stream size : 1.92 GiB (94%)
    Language : English
    Encoded date : UTC 2011-12-24 18:29:23
    Tagged date : UTC 2011-12-24 18:34:37

    Audio
    ID : 2
    Format : AAC
    Format/Info : Advanced Audio Codec
    Format profile : LC
    Codec ID : 40
    Duration : 1h 31mn
    Bit rate mode : Variable
    Bit rate : 192 Kbps
    Maximum bit rate : 239 Kbps
    Channel(s) : 2 channels
    Channel positions : Front: L R
    Sampling rate : 48.0 KHz
    Compression mode : Lossy
    Stream size : 124 MiB (6%)
    Language : English
    Encoded date : UTC 2011-12-24 18:34:38
    Tagged date : UTC 2011-12-24 18:34:55

    Click this bar to view the original image of 800x450px.


    Download: Free File Sharing Made Simple - MediaFire
    Nguồn: Bin21, pdaviet

  8. 9 người đã cảm ơn minhnamvn2003


  9. #6
    HD-upscale kn_nguyen's Avatar
    Đăng ký
    15-06-09
    Bài viết
    53
    Thanks
    9
    Thanked
    30
    cR
    36

    Mặc định Ðề: CHIA SẺ PHIM 3D CHO ĐIỆN THOẠI 3D KHÔNG KÍNH

    Để chạy được trên EVO 3D hoặc LG <---điện thoại 3D kg cần kính kg phải 2 em đó ra đầu tiên và duy nhất đâu bạn ạ.....

  10. #7
    HD-upscale minhnamvn2003's Avatar
    Đăng ký
    30-05-11
    Bài viết
    10
    Thanks
    13
    Thanked
    64
    cR
    24

    Mặc định Ðề: CHIA SẺ PHIM 3D CHO ĐIỆN THOẠI 3D KHÔNG KÍNH

    Trích Nguyên văn bởi kn_nguyen Xem bài viết
    Để chạy được trên EVO 3D hoặc LG <---điện thoại 3D kg cần kính kg phải 2 em đó ra đầu tiên và duy nhất đâu bạn ạ.....
    hãy chia sẻ, đừng bắt bẻ, bạn thấy cái tựa: CHIA SẺ PHIM 3D CHO ĐIỆN THOẠI KHÔNG KÍNH rồi mà....

  11. #8

    Mặc định Ðề: CHIA SẺ PHIM 3D CHO ĐIỆN THOẠI 3D KHÔNG KÍNH

    cám ơn các bác cho em mở mắt ra...
    chứ từ hồi dùng evo 3d đến h chỉ bik đếm mấy cái video 3d trên youtube chẳng cái nào ra hồn cả

  12. #9

    Mặc định Ðề: CHIA SẺ PHIM 3D CHO ĐIỆN THOẠI 3D KHÔNG KÍNH

    có bác nào còn phim green hornet 3d mà khi mua HTC evo 3d kèm theo ko ?
    làm ơn share cho em cai links °

  13. #10
    HD-upscale minhnamvn2003's Avatar
    Đăng ký
    30-05-11
    Bài viết
    10
    Thanks
    13
    Thanked
    64
    cR
    24

    Mặc định Ðề: CHIA SẺ PHIM 3D CHO ĐIỆN THOẠI 3D KHÔNG KÍNH

    Trích Nguyên văn bởi ducz_hopper Xem bài viết
    có bác nào còn phim green hornet 3d mà khi mua HTC evo 3d kèm theo ko ?
    làm ơn share cho em cai links °
    Free File Sharing Made Simple - MediaFire
    * Phim có kèm sub Việt trong folder download. Dùng 3DVPlayer để xem phim kèm sub. (Bin21, pdaviet)

  14. The Following User Says Thank You to minhnamvn2003 For This Useful Post:

    caluon 

Trang 1/11 1 2 3 ... Cuối cùngCuối cùng

Bookmarks

Quyền Sử Dụng Ở Diễn Ðàn

  • Bạn không được phép viết chủ đề mới
  • Bạn không được phép viết trả lời
  • Bạn không được phép gởi đính kèm
  • Bạn không được phép chỉnh sửa bài viết
  •  
Lên Trên! Xuống Dưới!