Kết quả từ 1 tới 2 trên 2
  1. #1
    Digital-2k trinhquocvinh82's Avatar
    Đăng ký
    03-09-09
    Bài viết
    1.800
    Thanks
    3.654
    Thanked
    180.919
    cR
    2.115

    Mặc định [Fshare] Hoạt hình 3D

    01.Toy Story 1 (1995)3D SBS .thuyết minh TV
    [IMG][/IMG]
    General #1
    ID : 1 (0x1)
    Complete name : Toy Story 1 3D SBS TM@5.1.ts
    Format : MPEG-TS
    File size : 7.50 GiB
    Duration : 1h 26mn
    Overall bit rate : 12.5 Mbps
    Maximum Overall bit rate : 35.5 Mbps
    Video #4113
    ID : 4113 (0x1011)
    Menu ID : 1 (0x1)
    Format : AVC
    Format/Info : Advanced Video Codec
    Format profile : Main@L4.0
    Format settings, CABAC : Yes
    Format settings, ReFrames : 4 frames
    Format settings, GOP : M=1, N=24
    Codec ID : 27
    Duration : 1h 26mn
    Bit rate mode : Variable
    Bit rate : 11.2 Mbps
    Maximum bit rate : 40.0 Mbps
    Width : 1 920 pixels
    Height : 1 080 pixels
    Display aspect ratio : 16:9
    Frame rate : 25.000 fps
    Color space : YUV
    Chroma subsampling : 4:2:0
    Bit depth : 8 bits

    Audio #4352
    ID : 4352 (0x1100)
    Menu ID : 1 (0x1)
    Format : AC-3
    Format/Info : Audio Coding 3
    Mode extension : CM (complete main)
    Codec ID : 129
    Duration : 1h 26mn
    Bit rate mode : Constant
    Bit rate : 640 Kbps
    Channel(s) : 6 channels
    Channel positions : Front: L C R, Side: L R, LFE
    Sampling rate : 48.0 KHz
    Bit depth : 16 bits
    Compression mode : Lossy
    Delay relative to video : 2s 230ms
    Stream size : 394 MiB (5%)


    02.Toy Story 2 (1999)3D SBS .thuyết minh TV

    [IMG][/IMG]
    General #1
    ID : 1 (0x1)
    Complete name : Hoat Hinh - Toy Story 2 (1999)\Toy Story 2 3D SBS TM@5.1.ts
    Format : MPEG-TS
    File size : 7.27 GiB
    Duration : 1h 27mn
    Overall bit rate : 11.9 Mbps
    Maximum Overall bit rate : 35.5 Mbps
    Video #4113
    ID : 4113 (0x1011)
    Menu ID : 1 (0x1)
    Format : AVC
    Format/Info : Advanced Video Codec
    Format profile : Main@L4.0
    Format settings, CABAC : Yes
    Format settings, ReFrames : 4 frames
    Codec ID : 27
    Duration : 1h 27mn
    Bit rate mode : Variable
    Bit rate : 10.7 Mbps
    Maximum bit rate : 40.0 Mbps
    Width : 1 920 pixels
    Height : 1 080 pixels
    Display aspect ratio : 16:9
    Frame rate : 25.000 fps
    Color space : YUV
    Chroma subsampling : 4:2:0
    Bit depth : 8 bits

    Audio #4352
    ID : 4352 (0x1100)
    Menu ID : 1 (0x1)
    Format : AC-3
    Format/Info : Audio Coding 3
    Mode extension : CM (complete main)
    Codec ID : 129
    Duration : 1h 27mn
    Bit rate mode : Constant
    Bit rate : 640 Kbps
    Channel(s) : 6 channels
    Channel positions : Front: L C R, Side: L R, LFE
    Sampling rate : 48.0 KHz
    Bit depth : 16 bits
    Compression mode : Lossy
    Stream size : 399 MiB (5%)
    Language : Vietnamese

    03.Toystory3.3D.20101.080p.TM.haftSBSx2643D SBS .thuyết minh TV
    [IMG][/IMG]
    General
    Unique ID : 226148589327869481459722066342784569341 (0xAA22A24E44262CC3B7C042B4E1DC8FFD)
    Complete name : Toystory3.3D.20101.080p.TM.haftSBSx264.mkv
    Format : Matroska
    File size : 5.72 GiB
    Duration : 1h 42mn
    Overall bit rate : 7 987 Kbps
    Movie name : TOY STORY COLLECTION 3D SBS BlurayRip
    Encoded date : UTC 2011-08-06 05:13:03
    Writing application : mkvmerge v4.9.1 ('Ich will') built on Jul 11 2011 23:53:15
    Writing library : libebml v1.2.1 + libmatroska v1.1.1
    Video #1
    ID : 1
    Format : AVC
    Format/Info : Advanced Video Codec
    Format profile : High@L5.1
    Format settings, CABAC : Yes
    Format settings, ReFrames : 2 frames
    Codec ID : V_MPEG4/ISO/AVC
    Duration : 1h 42mn
    Bit rate : 7 156 Kbps
    Width : 1 920 pixels
    Height : 1 080 pixels
    Display aspect ratio : 16:9
    Frame rate : 23.976 fps
    Color space : YUV
    Chroma subsampling : 4:2:0
    Bit depth : 8 bits
    Scan type : Progressive
    Bits/(Pixel*Frame) : 0.144
    Stream size : 5.13 GiB (90%)
    Title : 3D haft SBS
    Writing library : x264 core
    Language : English
    Color primaries : BT.709-5, BT.1361, IEC 61966-2-4, SMPTE RP177
    Transfer characteristics : BT.709-5, BT.1361
    Matrix coefficients : BT.709-5, BT.1361, IEC 61966-2-4 709, SMPTE RP177
    Audio #2
    ID : 2
    Format : AC-3
    Format/Info : Audio Coding 3
    Mode extension : CM (complete main)
    Muxing mode : Header stripping
    Codec ID : A_AC3
    Duration : 1h 42mn
    Bit rate mode : Constant
    Bit rate : 224 Kbps
    Channel(s) : 2 channels
    Channel positions : Front: L R
    Sampling rate : 44.1 KHz
    Bit depth : 16 bits
    Compression mode : Lossy
    Delay relative to video : 9ms
    Stream size : 164 MiB (3%)
    Title : TM-Khukhooo
    Language : Vietnamese
    Audio #3
    ID : 3
    Format : AC-3
    Format/Info : Audio Coding 3
    Mode extension : CM (complete main)
    Muxing mode : Header stripping
    Codec ID : A_AC3
    Duration : 1h 42mn
    Bit rate mode : Constant
    Bit rate : 448 Kbps
    Channel(s) : 6 channels
    Channel positions : Front: L C R, Side: L R, LFE
    Sampling rate : 48.0 KHz
    Bit depth : 16 bits
    Compression mode : Lossy
    Stream size : 329 MiB (6%)
    Language : English
    Link:

    04. Rio (2010) .thuyết minh TV[1link]

    [IMG][/IMG]


    -----------------------------------------------------------------
    Chỉnh sửa nội dung bởi: trinhquocvinh82, 06-06-2012 lúc 02:09

  2. 9 người đã cảm ơn trinhquocvinh82


  3. #2
    HD-720p tuanhai1177's Avatar
    Đăng ký
    03-06-12
    Bài viết
    138
    Thanks
    319
    Thanked
    242
    cR
    213

    Mặc định Ðề: [Fshare] Hoạt hình 3D

    có phim vẹt Rio không hở bác? cho em xin với?

Bookmarks

Quyền Sử Dụng Ở Diễn Ðàn

  • Bạn không được phép viết chủ đề mới
  • Bạn không được phép viết trả lời
  • Bạn không được phép gởi đính kèm
  • Bạn không được phép chỉnh sửa bài viết
  •  
Lên Trên! Xuống Dưới!