Trang 1/5 1 2 3 ... Cuối cùngCuối cùng
Kết quả từ 1 tới 10 trên 48
  1. #1
    HD-720p chiphoi's Avatar
    Đăng ký
    07-05-09
    Bài viết
    484
    Thanks
    188
    Thanked
    57.510
    cR
    65

    Mặc định Avatar 3D 2009 720p AVC AC3 5.1 - Thuyết minh 3D

    Avatar 3D 2009 720p AVC AC3 5.1 - 3D + Thuyết minh


    THIS IS NOT AN OFFICIAL RELEASE.

    Đây là phiên bản chuyển thể từ 2D sang 3D do người China làm. Film gốc của chỉ có Chinese audio, mình gỡ Chinese audio ra và add thuyết minh + English audio vào. Đã coi qua, phim có chiều sâu chứ ko được như Journey to the center of the earth hay Sea Monster. Nhưng được cái ko phải đọc phụ đề (coi 3D mà đọc phụ đề thì ...)

    New Cinema of the original 720P HD disc compressed file, MKV package

    This version of the format for the whole 3D, realistic effect than than the 10G version: the color and movement than the scene on a chip

    Watch: 1. First of all, players must use the Stereoscopic Player
    2. Need to view 3D equipment: the simplest is the red-blue glasses etc.
    Or nVidia's 3D glasses + 120HZ display
    Furthermore is the Red Net glasses are out of varieties, taobao have to sell
    Finally is soon popular projector (TI) + DLP glasses. Now seems to ACER's
    H5360 and the DLP ACER glasses. I used to eat a crab

    Stereoscopic Player is currently decoding high-definition player tossing 3D test, the only point is that the computer has not really advanced players sometimes look a little shiver. . . .
    Cách xem:
    1. Download phần mềm Stereoscopic Player về, install dùng k3y để đăng ký. Mở firewall block nó lại.
      Code:
      http://mega.1280.com/file/T719AXYZ9T/
    2. Config các filter để coi film (nếu muốn vì nó dùng codec ngoài)
      Tham khảo: Hướng dẫn playback HD trên PC toàn tập(update 6/10)
      Code:
      http://forum.hdvnbits.org/hd-cho-nguoi-moi/huong-dan-playback-hd-tren-pc-toan-tap-update-6-10-a-196.html
    3. Mở file film bằng Stereoscopic Player (chọn all types). Chọn Over/Under, Left Image Top (hoặc Ctrl + V \ Settings)
    4. Coi bằng kính red-cyan
      Code:
      http://www.google.com.vn/images?q=red-cyan&hl=vi&client=opera&hs=aaN&rls=en&prmd=iv&source=lnms&tbs=isch:1&ei=CXH3S63qFYPZcdm7sOYL&sa=X&oi=mode_link&ct=mode&ved=0CBAQ_AU


    Technical Info:
    General
    Complete name : AVATAR.3D.Stereoscopic.Above.Below.2009.AVC.AC3 (tm).mkv
    Format : Matroska
    File size : 17.7 GiB
    Duration : 2h 41mn
    Overall bit rate : 15.7 Mbps
    Encoded date : UTC 2010-05-20 05:49:41
    Writing application : mkvmerge v3.3.0 ('Language') built on Mar 24 2010 14:59:24
    Writing library : libebml v0.8.0 + libmatroska v0.9.0

    Video
    ID : 1
    Format : AVC
    Format/Info : Advanced Video Codec
    Format profile : Main@L4.0
    Format settings, CABAC : No
    Format settings, ReFrames : 2 frames
    Format settings, GOP : M=1, N=32
    Muxing mode : Container profile=Unknown@4.0
    Codec ID : V_MPEG4/ISO/AVC
    Duration : 2h 41mn
    Bit rate : 14.3 Mbps
    Width : 1 280 pixels
    Height : 1 056 pixels
    Display aspect ratio : 1.212
    Frame rate : 29.970 fps
    Color space : YUV
    Chroma subsampling : 4:2:0
    Bit depth : 8 bits
    Scan type : Progressive
    Bits/(Pixel*Frame) : 0.354
    Stream size : 16.2 GiB (91%)
    Language : Chinese
    Color primaries : BT.709-5, BT.1361, IEC 61966-2-4, SMPTE RP177
    Transfer characteristics : BT.709-5, BT.1361
    Matrix coefficients : BT.709-5, BT.1361, IEC 61966-2-4 709, SMPTE RP177

    Audio #1
    ID : 2
    Format : AC-3
    Format/Info : Audio Coding 3
    Mode extension : CM (complete main)
    Codec ID : A_AC3
    Duration : 2h 41mn
    Bit rate mode : Constant
    Bit rate : 448 Kbps
    Channel(s) : 6 channels
    Channel positions : Front: L C R, Side: L R, LFE
    Sampling rate : 48.0 KHz
    Video delay : -177ms
    Stream size : 518 MiB (3%)
    Title : Vietnamese audio added by Phong Nguyen - HDVNBITS.ORG
    Language : Vietnamese

    Audio #2
    ID : 3
    Format : AC-3
    Format/Info : Audio Coding 3
    Mode extension : CM (complete main)
    Codec ID : A_AC3
    Duration : 2h 41mn
    Bit rate mode : Constant
    Bit rate : 640 Kbps
    Channel(s) : 6 channels
    Channel positions : Front: L C R, Side: L R, LFE
    Sampling rate : 48.0 KHz
    Video delay : -177ms
    Stream size : 739 MiB (4%)
    Language : English
    Screens:
    Coi bằng player thường nó như thế này:


    Coi bằng Stereoscopic Player nó như thế này:


    Downloads:
    Bạn nhấn nút Thanks, sau đó nhấn F5 để lấy link nhé!

    hoặc (95x 200MB + 1x 125MB + md5)
    Bạn nhấn nút Thanks, sau đó nhấn F5 để lấy link nhé!


    Pass:
    Code:
    forum.hdvnbits.org
    Enjoy!


    -----------------------------------------------------------------
    Tất cả các film mình up từ giờ về sau sẽ split bằng winrar với 5% recovery record + checksum.md5 (hoặc sfv), xem thêm ở đây.


  2. #2
    HD-720p traitimtraoem's Avatar
    Đăng ký
    18-11-09
    Bài viết
    378
    Thanks
    214
    Thanked
    2.146
    cR
    898

    Mặc định Ðề: Avatar 3D 2009 720p AVC AC3 5.1 - Thuyết minh 3D

    Mình bóc tem cái. Tks chủ topic nhé

  3. #3
    HD-upscale Byn's Avatar
    Đăng ký
    18-04-10
    Bài viết
    74
    Thanks
    0
    Thanked
    30
    cR
    0

    Mặc định Ðề: Avatar 3D 2009 720p AVC AC3 5.1 - Thuyết minh 3D

    mình ko down đâu. có bản 720p 2D xem thấy sướng lắm rồi.
    cảm ơn bro vì lòng nhiệt tình với dân, với nước ^^

  4. #4
    HD-1080i cuongk45a7's Avatar
    Đăng ký
    15-05-09
    Bài viết
    602
    Thanks
    57
    Thanked
    12.825
    cR
    173

    Mặc định Ðề: Avatar 3D 2009 720p AVC AC3 5.1 - Thuyết minh 3D

    Bro cho mình Audio được không ? ! Riêng Audio ấy ! Thanks !

  5. The Following User Says Thank You to cuongk45a7 For This Useful Post:


  6. #5
    HD-720p ledinhcuong248's Avatar
    Đăng ký
    20-05-09
    Bài viết
    171
    Thanks
    178
    Thanked
    416
    cR
    191

    Mặc định Ðề: Avatar 3D 2009 720p AVC AC3 5.1 - Thuyết minh 3D

    hic...đang down, 17G ko biết xem chất lượng thế nào, dù sao cũng thank bác chủ thớt

  7. #6
    HD-720p chiphoi's Avatar
    Đăng ký
    07-05-09
    Bài viết
    484
    Thanks
    188
    Thanked
    57.510
    cR
    65

    Mặc định Ðề: Avatar 3D 2009 720p AVC AC3 5.1 - Thuyết minh 3D

    Trích Nguyên văn bởi cuongk45a7 Xem bài viết
    Bro cho mình Audio được không ? ! Riêng Audio ấy ! Thanks !
    Của bro:
    Code:
    http://forum.hdvnbits.org/cay-nha-la-vuon/avatar-audio-thuyet-minh-ac3-5-1-448kbps-2995.html
    Tất cả các film mình up từ giờ về sau sẽ split bằng winrar với 5% recovery record + checksum.md5 (hoặc sfv), xem thêm ở đây.

  8. #7
    HD-upscale hungdaive's Avatar
    Đăng ký
    09-09-09
    Bài viết
    67
    Thanks
    88
    Thanked
    88
    cR
    73

    Mặc định Ðề: Avatar 3D 2009 720p AVC AC3 5.1 - Thuyết minh 3D

    nhanh nhỉ, đã có 3D xem rồi, âm thanh thì khỏi nói

  9. #8
    HD-upscale huutienvl's Avatar
    Đăng ký
    22-06-09
    Bài viết
    45
    Thanks
    404
    Thanked
    22
    cR
    99

    Mặc định Ðề: Avatar 3D 2009 720p AVC AC3 5.1 - Thuyết minh 3D

    Mình down phần mềm Stereoscopic_Player về rồi nhưng kg có Pass để giải nén bạn ơi! ????

  10. #9
    HD-720p chiphoi's Avatar
    Đăng ký
    07-05-09
    Bài viết
    484
    Thanks
    188
    Thanked
    57.510
    cR
    65

    Mặc định Ðề: Avatar 3D 2009 720p AVC AC3 5.1 - Thuyết minh 3D

    Trích Nguyên văn bởi huutienvl Xem bài viết
    Mình down phần mềm Stereoscopic_Player về rồi nhưng kg có Pass để giải nén bạn ơi! ????
    Read all my words again carefully.
    Tất cả các film mình up từ giờ về sau sẽ split bằng winrar với 5% recovery record + checksum.md5 (hoặc sfv), xem thêm ở đây.

  11. #10
    HD-720p mrpotter2510's Avatar
    Đăng ký
    16-04-10
    Bài viết
    341
    Thanks
    90
    Thanked
    533
    cR
    36

    Mặc định Ðề: Avatar 3D 2009 720p AVC AC3 5.1 - Thuyết minh 3D

    Cấu hình tối thiểu để coi đc cái lài là ntn hở bác???

Trang 1/5 1 2 3 ... Cuối cùngCuối cùng

Tags for this Thread

Bookmarks

Quyền Sử Dụng Ở Diễn Ðàn

  • Bạn không được phép viết chủ đề mới
  • Bạn không được phép viết trả lời
  • Bạn không được phép gởi đính kèm
  • Bạn không được phép chỉnh sửa bài viết
  •  
Lên Trên! Xuống Dưới!