Trang 1/2 1 2 Cuối cùngCuối cùng
Kết quả từ 1 tới 10 trên 16
  1. #1

    Question Xin phim The Secret- Bí Mật!!!!

    Chào các bạn trên diễn đàn hdvietnam,mình nhớ trước đây đã xem 1 bộ phim khoa học có tên "The Secret" bằng DVD có cả thuyết minh tiếng việt do Thu Hiền nhà đài đọc hẳn hoi. Giờ bị thất lạc mất DVD đó ,muốn xem lại mà tìm không được ,chỉ thấy mỗi cái thông tin này trên mạng: http://www.tuhocanhvan.com/khoa-hoc-...t-hap-dan.html
    Anh em nào có cho mình xin link dow với nhé!
    Xin cám ơn các bạn trước!


    -----------------------------------------------------------------

  2. The Following User Says Thank You to dungvtv For This Useful Post:


  3. #2
    HD-1080i Hoàng Hôn's Avatar
    Đăng ký
    13-01-10
    Bài viết
    714
    Thanks
    405
    Thanked
    22.064
    cR
    963

    Mặc định Ðề: Xin phim The Secret- Bí Mật!!!!

    Bạn xem có phải không?

    The Secret (2006) DVDRip-DMZ

    DVDRip | English | 1h 29mn | 640x352 | AVI XviD 966Kbps 29.970 fps | MP3 2.0 128Kbps 48.0KHz | 700 MB
    Genre: Documentary


    Rhonda Byrne, after a series of painful experiences in her life, learns a great Secret. Once she knows it, she is amazed to discover through her research how many famous figures throughout history knew it, and how many persons living today know it and preach it. She gathers these modern day advocates
    for her documentary. What is the Secret? It s the Law of Attraction. What we have our in our lives, we have attracted into it. Byrne s various guests with their various labels doctor, author, philosopher, psychologist, entrepreneur, visionary, metaphysician, quantum physicist, financial strategist, feng shui
    consultant all expound upon what the Law of Attraction is and how to attract good things into our lives, while avoiding the bad. Your wish, says the Universe, is my command.

    Download Links
    Hotfile
    Code:
    http://hotfile.com/dl/42513715/5411d98/The_Secret_2006_DMZ.part1.rar.html
    http://hotfile.com/dl/42513863/b87d6af/The_Secret_2006_DMZ.part2.rar.html
    http://hotfile.com/dl/42513901/e9b7715/The_Secret_2006_DMZ.part3.rar.html
    http://hotfile.com/dl/42513935/a853322/The_Secret_2006_DMZ.part4.rar.html
    http://hotfile.com/dl/42514026/d560e4c/The_Secret_2006_DMZ.part5.rar.html
    http://hotfile.com/dl/42514128/9f7fc55/The_Secret_2006_DMZ.part6.rar.html
    http://hotfile.com/dl/42514200/78f839b/The_Secret_2006_DMZ.part7.rar.html
    
    Phụ đề Việt (chưa test) Bạn kiểm tra nhé
    http://subscene.com/vietnamese/The-Secret/subtitle-139149.aspx
    
    hoặc
    http://subscene.com/vietnamese/the-secret-law-of-attraction/subtitle-361167.aspx
    Chỉnh sửa nội dung bởi: Hoàng Hôn, 26-11-2010 lúc 00:35

  4. #3

    Mặc định Ðề: Xin phim The Secret- Bí Mật!!!!

    Không phải bạn à, cái này là phim khoa học cơ. Mình chỉ tìm thấy trên youtube nhưng nó chỉ có 1 đoạn thôi: http://www.youtube.com/watch?v=_b1GKGWJbE8
    Phim này đầy đủ dài hơn 1h20p,lâu rồi mình không nhớ rõ nữa..

  5. #4
    HD-1080i Hoàng Hôn's Avatar
    Đăng ký
    13-01-10
    Bài viết
    714
    Thanks
    405
    Thanked
    22.064
    cR
    963

    Mặc định The Secret 2006 DVDRiP XviD-TRG

    Trích Nguyên văn bởi dungvtv Xem bài viết
    Không phải bạn à, cái này là phim khoa học cơ. Mình chỉ tìm thấy trên youtube nhưng nó chỉ có 1 đoạn thôi: http://www.youtube.com/watch?v=_b1GKGWJbE8
    Phim này đầy đủ dài hơn 1h20p,lâu rồi mình không nhớ rõ nữa..
    Bản post ở trên chưa test, nhưng bản ở dưới đây đã tải và test rồi, đúng như trailer trên youtube, sub Việt khớp ... Mình đã download link ở host fileserve.com >> OK


    The Secret 2006 DVDRiP XviD-TRG
    Language:English
    89 mins | 640 x 352 | 25fps | Xvid | MP3 - 131kbs | 704 MB
    Genre: Documentary

    The Secret is a feature length movie presentation which reveals The Great Secret of the universe. It has been passed throughout the ages, traveling through centuries... This is The Secret to everything - the secret to unlimited joy, health, money, relationships, love, youth: everything you have ever wanted. All the resources you will ever need to understand and live The Secret. The world's leading scientists, authors, and philosophers will reveal The Secret that utterly transformed the lives of every person who ever knew it... Plato, Newton, Carnegie, Beethoven, Shakespeare, Einstein.




    SCREENSHOT:

    Code:
    General
    Complete name                    : J:\The.Secret.2006.DVDRiP.XviD-TRG\The.Secret.2006.DVDRiP.XviD-TRG.avi
    Format                           : AVI
    Format/Info                      : Audio Video Interleave
    File size                        : 705 MiB
    Duration                         : 1h 29mn
    Overall bit rate                 : 1 102 Kbps
    Writing application              : VirtualDubMod 1.5.10.2 (build 2540/release)
    Writing library                  : VirtualDubMod build 2540/release
    
    Video
    ID                               : 0
    Format                           : MPEG-4 Visual
    Format profile                   : Advanced Simple@L5
    Format settings, BVOP            : Yes
    Format settings, QPel            : No
    Format settings, GMC             : No warppoints
    Format settings, Matrix          : Default (H.263)
    Muxing mode                      : Packed bitstream
    Codec ID                         : XVID
    Codec ID/Hint                    : XviD
    Duration                         : 1h 29mn
    Bit rate                         : 966 Kbps
    Width                            : 640 pixels
    Height                           : 352 pixels
    Display aspect ratio             : 16:9
    Frame rate                       : 29.970 fps
    Color space                      : YUV
    Chroma subsampling               : 4:2:0
    Bit depth                        : 8 bits
    Scan type                        : Progressive
    Bits/(Pixel*Frame)               : 0.143
    Stream size                      : 618 MiB (88%)
    Writing library                  : XviD 1.2.0.dev47 (UTC 2006-11-01)
    
    Audio
    ID                               : 1
    Format                           : MPEG Audio
    Format version                   : Version 1
    Format profile                   : Layer 3
    Mode                             : Joint stereo
    Codec ID                         : 55
    Codec ID/Hint                    : MP3
    Duration                         : 1h 29mn
    Bit rate mode                    : Variable
    Bit rate                         : 128 Kbps
    Channel(s)                       : 2 channels
    Sampling rate                    : 48.0 KHz
    Stream size                      : 78.4 MiB (11%)
    Alignment                        : Aligned on interleaves
    Interleave, duration             : 24 ms (0.72 video frame)
    Interleave, preload duration     : 313 ms
    Writing library                  : LAME3.90.
    Encoding settings                : -m j -V 4 -q 2 -lowpass 17.6 --abr 128
    Code:
    DOWNLOAD LINK:
    Hotfile:
    http://hotfile.com/dl/65630744/315e808/308m1_The.Secret.DVDRiP.XviD-TRG.part1.rar.html
    http://hotfile.com/dl/65630983/6ec574b/308m1_The.Secret.DVDRiP.XviD-TRG.part2.rar.html
    http://hotfile.com/dl/65631218/0a818a7/308m1_The.Secret.DVDRiP.XviD-TRG.part3.rar.html
    http://hotfile.com/dl/65631498/ea752d9/308m1_The.Secret.DVDRiP.XviD-TRG.part4.rar.html
    http://hotfile.com/dl/65631751/9d856e0/308m1_The.Secret.DVDRiP.XviD-TRG.part5.rar.html
    http://hotfile.com/dl/65632000/c15cd1e/308m1_The.Secret.DVDRiP.XviD-TRG.part6.rar.html
    http://hotfile.com/dl/65632241/40922f8/308m1_The.Secret.DVDRiP.XviD-TRG.part7.rar.html
    Mirror (Fileserve)
    http://www.fileserve.com/file/JZS7AYK/308m1_The.Secret.DVDRiP.XviD-TRG.part1.rar
    http://www.fileserve.com/file/hRVZNRN/308m1_The.Secret.DVDRiP.XviD-TRG.part2.rar
    http://www.fileserve.com/file/PERQzwU/308m1_The.Secret.DVDRiP.XviD-TRG.part3.rar
    http://www.fileserve.com/file/8g3xvG3/308m1_The.Secret.DVDRiP.XviD-TRG.part4.rar
    http://www.fileserve.com/file/mgfJRvH/308m1_The.Secret.DVDRiP.XviD-TRG.part5.rar
    http://www.fileserve.com/file/SveuqM5/308m1_The.Secret.DVDRiP.XviD-TRG.part6.rar
    http://www.fileserve.com/file/tXdp3c7/308m1_The.Secret.DVDRiP.XviD-TRG.part7.rar
    Mirror (Uploading)
    http://uploading.com/files/a9e25c42/308m1_The.Secret.DVDRiP.XviD-TRG.part1.rar/
    http://uploading.com/files/c2ca8a93/308m1_The.Secret.DVDRiP.XviD-TRG.part2.rar/
    http://uploading.com/files/7mmb4d4a/308m1_The.Secret.DVDRiP.XviD-TRG.part3.rar/
    http://uploading.com/files/a5c795c9/308m1_The.Secret.DVDRiP.XviD-TRG.part4.rar/
    http://uploading.com/files/95am1584/308m1_The.Secret.DVDRiP.XviD-TRG.part5.rar/
    http://uploading.com/files/e11m1954/308m1_The.Secret.DVDRiP.XviD-TRG.part6.rar/
    http://uploading.com/files/43de6cd5/308m1_The.Secret.DVDRiP.XviD-TRG.part7.rar/
    Mirror (keepfile)
    http://www.keepfile.com/4r4tys1qlkr7/308m1_The.Secret.DVDRiP.XviD-TRG.part1.rar
    http://www.keepfile.com/un3fmet7m167/308m1_The.Secret.DVDRiP.XviD-TRG.part2.rar
    http://www.keepfile.com/fyrs26k9ijk6/308m1_The.Secret.DVDRiP.XviD-TRG.part3.rar
    http://www.keepfile.com/2qffbn2n368u/308m1_The.Secret.DVDRiP.XviD-TRG.part4.rar
    http://www.keepfile.com/y5q8oxp9srnf/308m1_The.Secret.DVDRiP.XviD-TRG.part5.rar
    http://www.keepfile.com/zurop7s6c033/308m1_The.Secret.DVDRiP.XviD-TRG.part6.rar
    http://www.keepfile.com/rv3ovv14yzng/308m1_The.Secret.DVDRiP.XviD-TRG.part7.rar
    
    Links Are interchangeable,enjoy
    Phụ đề Việt khớp
    http://www.hdvietnam.com/diendan/att...1&d=1294383335
    Chỉnh sửa nội dung bởi: Hoàng Hôn, 07-01-2011 lúc 13:57 Lý do: Sửa link phụ đề

  6. #5
    HD-upscale supermario's Avatar
    Đăng ký
    28-06-10
    Bài viết
    24
    Thanks
    62
    Thanked
    5
    cR
    106

    Mặc định Ðề: Xin phim The Secret- Bí Mật!!!!

    link MF có sẵn phụ đề tiếng việt:
    http://www.mediafire.com/?5idcjhhl88eup có điều phụ đề nó hiện ở phía trên màn hình, hơi khó nhìn 1 tý
    Đoạn trailer phụ đề
    http://www.youtube.com/watch?v=fEUB7...ayer_embedded#!

  7. The Following User Says Thank You to supermario For This Useful Post:


  8. #6
    HD-upscale khanhvn78's Avatar
    Đăng ký
    09-02-10
    Bài viết
    19
    Thanks
    47
    Thanked
    12
    cR
    26

    Smile Ðề: Xin phim The Secret- Bí Mật!!!!

    Tò mò phết nhỉ, down về xem thử, theo tôi gia cát dự thì bí mật ở trong mỗi chúng ta chứ không có gì khác

  9. #7

    Mặc định Ðề: The Secret 2006 DVDRiP XviD-TRG

    @Hoàng Hôn: hi lão,

    Lão bảo đã tải và test nhưng hình như lúc lão paste cái link sub lão paste nhầm hay sao á?

    Cái sub lão post nhầm film rồi. Link 139149 nó 2 part, trong khi file film của lão chỉ có 1 thui nhá. Đọc wa test thì thấy trật lất Khi vào link sub 139149 thì lão kéo xuống dưới có 1 comment tiếng Việt nói là trật lất á

    Lão chỉnh lại cho anh em nhờ.... Thanks lão

    Trích Nguyên văn bởi Hoàng Hôn Xem bài viết
    Bản post ở trên chưa test, nhưng bản ở dưới đây đã tải và test rồi, đúng như trailer trên youtube, sub Việt khớp ... Mình đã download link ở host fileserve.com >> OK


    The Secret 2006 DVDRiP XviD-TRG
    Language:English
    89 mins | 640 x 352 | 25fps | Xvid | MP3 - 131kbs | 704 MB
    Genre: Documentary

    The Secret is a feature length movie presentation which reveals The Great Secret of the universe. It has been passed throughout the ages, traveling through centuries... This is The Secret to everything - the secret to unlimited joy, health, money, relationships, love, youth: everything you have ever wanted. All the resources you will ever need to understand and live The Secret. The world's leading scientists, authors, and philosophers will reveal The Secret that utterly transformed the lives of every person who ever knew it... Plato, Newton, Carnegie, Beethoven, Shakespeare, Einstein.




    SCREENSHOT:

    Code:
    General
    Complete name                    : J:\The.Secret.2006.DVDRiP.XviD-TRG\The.Secret.2006.DVDRiP.XviD-TRG.avi
    Format                           : AVI
    Format/Info                      : Audio Video Interleave
    File size                        : 705 MiB
    Duration                         : 1h 29mn
    Overall bit rate                 : 1 102 Kbps
    Writing application              : VirtualDubMod 1.5.10.2 (build 2540/release)
    Writing library                  : VirtualDubMod build 2540/release
    
    Video
    ID                               : 0
    Format                           : MPEG-4 Visual
    Format profile                   : Advanced Simple@L5
    Format settings, BVOP            : Yes
    Format settings, QPel            : No
    Format settings, GMC             : No warppoints
    Format settings, Matrix          : Default (H.263)
    Muxing mode                      : Packed bitstream
    Codec ID                         : XVID
    Codec ID/Hint                    : XviD
    Duration                         : 1h 29mn
    Bit rate                         : 966 Kbps
    Width                            : 640 pixels
    Height                           : 352 pixels
    Display aspect ratio             : 16:9
    Frame rate                       : 29.970 fps
    Color space                      : YUV
    Chroma subsampling               : 4:2:0
    Bit depth                        : 8 bits
    Scan type                        : Progressive
    Bits/(Pixel*Frame)               : 0.143
    Stream size                      : 618 MiB (88%)
    Writing library                  : XviD 1.2.0.dev47 (UTC 2006-11-01)
    
    Audio
    ID                               : 1
    Format                           : MPEG Audio
    Format version                   : Version 1
    Format profile                   : Layer 3
    Mode                             : Joint stereo
    Codec ID                         : 55
    Codec ID/Hint                    : MP3
    Duration                         : 1h 29mn
    Bit rate mode                    : Variable
    Bit rate                         : 128 Kbps
    Channel(s)                       : 2 channels
    Sampling rate                    : 48.0 KHz
    Stream size                      : 78.4 MiB (11%)
    Alignment                        : Aligned on interleaves
    Interleave, duration             : 24 ms (0.72 video frame)
    Interleave, preload duration     : 313 ms
    Writing library                  : LAME3.90.
    Encoding settings                : -m j -V 4 -q 2 -lowpass 17.6 --abr 128
    Code:
    DOWNLOAD LINK:
    Hotfile:
    http://hotfile.com/dl/65630744/315e808/308m1_The.Secret.DVDRiP.XviD-TRG.part1.rar.html
    http://hotfile.com/dl/65630983/6ec574b/308m1_The.Secret.DVDRiP.XviD-TRG.part2.rar.html
    http://hotfile.com/dl/65631218/0a818a7/308m1_The.Secret.DVDRiP.XviD-TRG.part3.rar.html
    http://hotfile.com/dl/65631498/ea752d9/308m1_The.Secret.DVDRiP.XviD-TRG.part4.rar.html
    http://hotfile.com/dl/65631751/9d856e0/308m1_The.Secret.DVDRiP.XviD-TRG.part5.rar.html
    http://hotfile.com/dl/65632000/c15cd1e/308m1_The.Secret.DVDRiP.XviD-TRG.part6.rar.html
    http://hotfile.com/dl/65632241/40922f8/308m1_The.Secret.DVDRiP.XviD-TRG.part7.rar.html
    Mirror (Fileserve)
    http://www.fileserve.com/file/JZS7AYK/308m1_The.Secret.DVDRiP.XviD-TRG.part1.rar
    http://www.fileserve.com/file/hRVZNRN/308m1_The.Secret.DVDRiP.XviD-TRG.part2.rar
    http://www.fileserve.com/file/PERQzwU/308m1_The.Secret.DVDRiP.XviD-TRG.part3.rar
    http://www.fileserve.com/file/8g3xvG3/308m1_The.Secret.DVDRiP.XviD-TRG.part4.rar
    http://www.fileserve.com/file/mgfJRvH/308m1_The.Secret.DVDRiP.XviD-TRG.part5.rar
    http://www.fileserve.com/file/SveuqM5/308m1_The.Secret.DVDRiP.XviD-TRG.part6.rar
    http://www.fileserve.com/file/tXdp3c7/308m1_The.Secret.DVDRiP.XviD-TRG.part7.rar
    Mirror (Uploading)
    http://uploading.com/files/a9e25c42/308m1_The.Secret.DVDRiP.XviD-TRG.part1.rar/
    http://uploading.com/files/c2ca8a93/308m1_The.Secret.DVDRiP.XviD-TRG.part2.rar/
    http://uploading.com/files/7mmb4d4a/308m1_The.Secret.DVDRiP.XviD-TRG.part3.rar/
    http://uploading.com/files/a5c795c9/308m1_The.Secret.DVDRiP.XviD-TRG.part4.rar/
    http://uploading.com/files/95am1584/308m1_The.Secret.DVDRiP.XviD-TRG.part5.rar/
    http://uploading.com/files/e11m1954/308m1_The.Secret.DVDRiP.XviD-TRG.part6.rar/
    http://uploading.com/files/43de6cd5/308m1_The.Secret.DVDRiP.XviD-TRG.part7.rar/
    Mirror (keepfile)
    http://www.keepfile.com/4r4tys1qlkr7/308m1_The.Secret.DVDRiP.XviD-TRG.part1.rar
    http://www.keepfile.com/un3fmet7m167/308m1_The.Secret.DVDRiP.XviD-TRG.part2.rar
    http://www.keepfile.com/fyrs26k9ijk6/308m1_The.Secret.DVDRiP.XviD-TRG.part3.rar
    http://www.keepfile.com/2qffbn2n368u/308m1_The.Secret.DVDRiP.XviD-TRG.part4.rar
    http://www.keepfile.com/y5q8oxp9srnf/308m1_The.Secret.DVDRiP.XviD-TRG.part5.rar
    http://www.keepfile.com/zurop7s6c033/308m1_The.Secret.DVDRiP.XviD-TRG.part6.rar
    http://www.keepfile.com/rv3ovv14yzng/308m1_The.Secret.DVDRiP.XviD-TRG.part7.rar
    
    Links Are interchangeable,enjoy
    Phụ đề Việt khớp
    Code:
    http://subscene.com/vietnamese/The-Secret/subtitle-139149.aspx

  10. #8

    Mặc định Ðề: Xin phim The Secret- Bí Mật!!!!

    phim này về đề tài gì vậy các pac

  11. #9
    HD-upscale phqnhat's Avatar
    Đăng ký
    16-07-10
    Bài viết
    16
    Thanks
    5
    Thanked
    2
    cR
    14

    Mặc định Ðề: The Secret 2006 DVDRiP XviD-TRG

    Trích Nguyên văn bởi Hoàng Hôn Xem bài viết
    Bản post ở trên chưa test, nhưng bản ở dưới đây đã tải và test rồi, đúng như trailer trên youtube, sub Việt khớp ... Mình đã download link ở host fileserve.com >> OK


    The Secret 2006 DVDRiP XviD-TRG
    Language:English
    89 mins | 640 x 352 | 25fps | Xvid | MP3 - 131kbs | 704 MB
    Genre: Documentary

    The Secret is a feature length movie presentation which reveals The Great Secret of the universe. It has been passed throughout the ages, traveling through centuries... This is The Secret to everything - the secret to unlimited joy, health, money, relationships, love, youth: everything you have ever wanted. All the resources you will ever need to understand and live The Secret. The world's leading scientists, authors, and philosophers will reveal The Secret that utterly transformed the lives of every person who ever knew it... Plato, Newton, Carnegie, Beethoven, Shakespeare, Einstein.




    SCREENSHOT:

    Code:
    General
    Complete name                    : J:\The.Secret.2006.DVDRiP.XviD-TRG\The.Secret.2006.DVDRiP.XviD-TRG.avi
    Format                           : AVI
    Format/Info                      : Audio Video Interleave
    File size                        : 705 MiB
    Duration                         : 1h 29mn
    Overall bit rate                 : 1 102 Kbps
    Writing application              : VirtualDubMod 1.5.10.2 (build 2540/release)
    Writing library                  : VirtualDubMod build 2540/release
    
    Video
    ID                               : 0
    Format                           : MPEG-4 Visual
    Format profile                   : Advanced Simple@L5
    Format settings, BVOP            : Yes
    Format settings, QPel            : No
    Format settings, GMC             : No warppoints
    Format settings, Matrix          : Default (H.263)
    Muxing mode                      : Packed bitstream
    Codec ID                         : XVID
    Codec ID/Hint                    : XviD
    Duration                         : 1h 29mn
    Bit rate                         : 966 Kbps
    Width                            : 640 pixels
    Height                           : 352 pixels
    Display aspect ratio             : 16:9
    Frame rate                       : 29.970 fps
    Color space                      : YUV
    Chroma subsampling               : 4:2:0
    Bit depth                        : 8 bits
    Scan type                        : Progressive
    Bits/(Pixel*Frame)               : 0.143
    Stream size                      : 618 MiB (88%)
    Writing library                  : XviD 1.2.0.dev47 (UTC 2006-11-01)
    
    Audio
    ID                               : 1
    Format                           : MPEG Audio
    Format version                   : Version 1
    Format profile                   : Layer 3
    Mode                             : Joint stereo
    Codec ID                         : 55
    Codec ID/Hint                    : MP3
    Duration                         : 1h 29mn
    Bit rate mode                    : Variable
    Bit rate                         : 128 Kbps
    Channel(s)                       : 2 channels
    Sampling rate                    : 48.0 KHz
    Stream size                      : 78.4 MiB (11%)
    Alignment                        : Aligned on interleaves
    Interleave, duration             : 24 ms (0.72 video frame)
    Interleave, preload duration     : 313 ms
    Writing library                  : LAME3.90.
    Encoding settings                : -m j -V 4 -q 2 -lowpass 17.6 --abr 128
    Code:
    DOWNLOAD LINK:
    Hotfile:
    http://hotfile.com/dl/65630744/315e808/308m1_The.Secret.DVDRiP.XviD-TRG.part1.rar.html
    http://hotfile.com/dl/65630983/6ec574b/308m1_The.Secret.DVDRiP.XviD-TRG.part2.rar.html
    http://hotfile.com/dl/65631218/0a818a7/308m1_The.Secret.DVDRiP.XviD-TRG.part3.rar.html
    http://hotfile.com/dl/65631498/ea752d9/308m1_The.Secret.DVDRiP.XviD-TRG.part4.rar.html
    http://hotfile.com/dl/65631751/9d856e0/308m1_The.Secret.DVDRiP.XviD-TRG.part5.rar.html
    http://hotfile.com/dl/65632000/c15cd1e/308m1_The.Secret.DVDRiP.XviD-TRG.part6.rar.html
    http://hotfile.com/dl/65632241/40922f8/308m1_The.Secret.DVDRiP.XviD-TRG.part7.rar.html
    Mirror (Fileserve)
    http://www.fileserve.com/file/JZS7AYK/308m1_The.Secret.DVDRiP.XviD-TRG.part1.rar
    http://www.fileserve.com/file/hRVZNRN/308m1_The.Secret.DVDRiP.XviD-TRG.part2.rar
    http://www.fileserve.com/file/PERQzwU/308m1_The.Secret.DVDRiP.XviD-TRG.part3.rar
    http://www.fileserve.com/file/8g3xvG3/308m1_The.Secret.DVDRiP.XviD-TRG.part4.rar
    http://www.fileserve.com/file/mgfJRvH/308m1_The.Secret.DVDRiP.XviD-TRG.part5.rar
    http://www.fileserve.com/file/SveuqM5/308m1_The.Secret.DVDRiP.XviD-TRG.part6.rar
    http://www.fileserve.com/file/tXdp3c7/308m1_The.Secret.DVDRiP.XviD-TRG.part7.rar
    Mirror (Uploading)
    http://uploading.com/files/a9e25c42/308m1_The.Secret.DVDRiP.XviD-TRG.part1.rar/
    http://uploading.com/files/c2ca8a93/308m1_The.Secret.DVDRiP.XviD-TRG.part2.rar/
    http://uploading.com/files/7mmb4d4a/308m1_The.Secret.DVDRiP.XviD-TRG.part3.rar/
    http://uploading.com/files/a5c795c9/308m1_The.Secret.DVDRiP.XviD-TRG.part4.rar/
    http://uploading.com/files/95am1584/308m1_The.Secret.DVDRiP.XviD-TRG.part5.rar/
    http://uploading.com/files/e11m1954/308m1_The.Secret.DVDRiP.XviD-TRG.part6.rar/
    http://uploading.com/files/43de6cd5/308m1_The.Secret.DVDRiP.XviD-TRG.part7.rar/
    Mirror (keepfile)
    http://www.keepfile.com/4r4tys1qlkr7/308m1_The.Secret.DVDRiP.XviD-TRG.part1.rar
    http://www.keepfile.com/un3fmet7m167/308m1_The.Secret.DVDRiP.XviD-TRG.part2.rar
    http://www.keepfile.com/fyrs26k9ijk6/308m1_The.Secret.DVDRiP.XviD-TRG.part3.rar
    http://www.keepfile.com/2qffbn2n368u/308m1_The.Secret.DVDRiP.XviD-TRG.part4.rar
    http://www.keepfile.com/y5q8oxp9srnf/308m1_The.Secret.DVDRiP.XviD-TRG.part5.rar
    http://www.keepfile.com/zurop7s6c033/308m1_The.Secret.DVDRiP.XviD-TRG.part6.rar
    http://www.keepfile.com/rv3ovv14yzng/308m1_The.Secret.DVDRiP.XviD-TRG.part7.rar
    
    Links Are interchangeable,enjoy
    Phụ đề Việt khớp
    Code:
    http://subscene.com/vietnamese/The-Secret/subtitle-139149.aspx
    phim thì đúng hay rồi, nhưng phụ đề là phụ đề phim secret của jay chou mà. tìm phụ đề tiếng anh về xem tạm

  12. #10
    HD-upscale phqnhat's Avatar
    Đăng ký
    16-07-10
    Bài viết
    16
    Thanks
    5
    Thanked
    2
    cR
    14

    Mặc định Ðề: The Secret 2006 DVDRiP XviD-TRG

    Trích Nguyên văn bởi Hoàng Hôn Xem bài viết
    Bản post ở trên chưa test, nhưng bản ở dưới đây đã tải và test rồi, đúng như trailer trên youtube, sub Việt khớp ... Mình đã download link ở host fileserve.com >> OK


    The Secret 2006 DVDRiP XviD-TRG
    Language:English
    89 mins | 640 x 352 | 25fps | Xvid | MP3 - 131kbs | 704 MB
    Genre: Documentary

    The Secret is a feature length movie presentation which reveals The Great Secret of the universe. It has been passed throughout the ages, traveling through centuries... This is The Secret to everything - the secret to unlimited joy, health, money, relationships, love, youth: everything you have ever wanted. All the resources you will ever need to understand and live The Secret. The world's leading scientists, authors, and philosophers will reveal The Secret that utterly transformed the lives of every person who ever knew it... Plato, Newton, Carnegie, Beethoven, Shakespeare, Einstein.




    SCREENSHOT:

    Code:
    General
    Complete name                    : J:\The.Secret.2006.DVDRiP.XviD-TRG\The.Secret.2006.DVDRiP.XviD-TRG.avi
    Format                           : AVI
    Format/Info                      : Audio Video Interleave
    File size                        : 705 MiB
    Duration                         : 1h 29mn
    Overall bit rate                 : 1 102 Kbps
    Writing application              : VirtualDubMod 1.5.10.2 (build 2540/release)
    Writing library                  : VirtualDubMod build 2540/release
    
    Video
    ID                               : 0
    Format                           : MPEG-4 Visual
    Format profile                   : Advanced Simple@L5
    Format settings, BVOP            : Yes
    Format settings, QPel            : No
    Format settings, GMC             : No warppoints
    Format settings, Matrix          : Default (H.263)
    Muxing mode                      : Packed bitstream
    Codec ID                         : XVID
    Codec ID/Hint                    : XviD
    Duration                         : 1h 29mn
    Bit rate                         : 966 Kbps
    Width                            : 640 pixels
    Height                           : 352 pixels
    Display aspect ratio             : 16:9
    Frame rate                       : 29.970 fps
    Color space                      : YUV
    Chroma subsampling               : 4:2:0
    Bit depth                        : 8 bits
    Scan type                        : Progressive
    Bits/(Pixel*Frame)               : 0.143
    Stream size                      : 618 MiB (88%)
    Writing library                  : XviD 1.2.0.dev47 (UTC 2006-11-01)
    
    Audio
    ID                               : 1
    Format                           : MPEG Audio
    Format version                   : Version 1
    Format profile                   : Layer 3
    Mode                             : Joint stereo
    Codec ID                         : 55
    Codec ID/Hint                    : MP3
    Duration                         : 1h 29mn
    Bit rate mode                    : Variable
    Bit rate                         : 128 Kbps
    Channel(s)                       : 2 channels
    Sampling rate                    : 48.0 KHz
    Stream size                      : 78.4 MiB (11%)
    Alignment                        : Aligned on interleaves
    Interleave, duration             : 24 ms (0.72 video frame)
    Interleave, preload duration     : 313 ms
    Writing library                  : LAME3.90.
    Encoding settings                : -m j -V 4 -q 2 -lowpass 17.6 --abr 128
    Code:
    DOWNLOAD LINK:
    Hotfile:
    http://hotfile.com/dl/65630744/315e808/308m1_The.Secret.DVDRiP.XviD-TRG.part1.rar.html
    http://hotfile.com/dl/65630983/6ec574b/308m1_The.Secret.DVDRiP.XviD-TRG.part2.rar.html
    http://hotfile.com/dl/65631218/0a818a7/308m1_The.Secret.DVDRiP.XviD-TRG.part3.rar.html
    http://hotfile.com/dl/65631498/ea752d9/308m1_The.Secret.DVDRiP.XviD-TRG.part4.rar.html
    http://hotfile.com/dl/65631751/9d856e0/308m1_The.Secret.DVDRiP.XviD-TRG.part5.rar.html
    http://hotfile.com/dl/65632000/c15cd1e/308m1_The.Secret.DVDRiP.XviD-TRG.part6.rar.html
    http://hotfile.com/dl/65632241/40922f8/308m1_The.Secret.DVDRiP.XviD-TRG.part7.rar.html
    Mirror (Fileserve)
    http://www.fileserve.com/file/JZS7AYK/308m1_The.Secret.DVDRiP.XviD-TRG.part1.rar
    http://www.fileserve.com/file/hRVZNRN/308m1_The.Secret.DVDRiP.XviD-TRG.part2.rar
    http://www.fileserve.com/file/PERQzwU/308m1_The.Secret.DVDRiP.XviD-TRG.part3.rar
    http://www.fileserve.com/file/8g3xvG3/308m1_The.Secret.DVDRiP.XviD-TRG.part4.rar
    http://www.fileserve.com/file/mgfJRvH/308m1_The.Secret.DVDRiP.XviD-TRG.part5.rar
    http://www.fileserve.com/file/SveuqM5/308m1_The.Secret.DVDRiP.XviD-TRG.part6.rar
    http://www.fileserve.com/file/tXdp3c7/308m1_The.Secret.DVDRiP.XviD-TRG.part7.rar
    Mirror (Uploading)
    http://uploading.com/files/a9e25c42/308m1_The.Secret.DVDRiP.XviD-TRG.part1.rar/
    http://uploading.com/files/c2ca8a93/308m1_The.Secret.DVDRiP.XviD-TRG.part2.rar/
    http://uploading.com/files/7mmb4d4a/308m1_The.Secret.DVDRiP.XviD-TRG.part3.rar/
    http://uploading.com/files/a5c795c9/308m1_The.Secret.DVDRiP.XviD-TRG.part4.rar/
    http://uploading.com/files/95am1584/308m1_The.Secret.DVDRiP.XviD-TRG.part5.rar/
    http://uploading.com/files/e11m1954/308m1_The.Secret.DVDRiP.XviD-TRG.part6.rar/
    http://uploading.com/files/43de6cd5/308m1_The.Secret.DVDRiP.XviD-TRG.part7.rar/
    Mirror (keepfile)
    http://www.keepfile.com/4r4tys1qlkr7/308m1_The.Secret.DVDRiP.XviD-TRG.part1.rar
    http://www.keepfile.com/un3fmet7m167/308m1_The.Secret.DVDRiP.XviD-TRG.part2.rar
    http://www.keepfile.com/fyrs26k9ijk6/308m1_The.Secret.DVDRiP.XviD-TRG.part3.rar
    http://www.keepfile.com/2qffbn2n368u/308m1_The.Secret.DVDRiP.XviD-TRG.part4.rar
    http://www.keepfile.com/y5q8oxp9srnf/308m1_The.Secret.DVDRiP.XviD-TRG.part5.rar
    http://www.keepfile.com/zurop7s6c033/308m1_The.Secret.DVDRiP.XviD-TRG.part6.rar
    http://www.keepfile.com/rv3ovv14yzng/308m1_The.Secret.DVDRiP.XviD-TRG.part7.rar
    
    Links Are interchangeable,enjoy
    Phụ đề Việt khớp
    Code:
    http://subscene.com/vietnamese/The-Secret/subtitle-139149.aspx
    phim thì đúng hay rồi, nhưng phụ đề là phụ đề phim secret của jay chou mà. tìm phụ đề tiếng anh về xem tạm

Trang 1/2 1 2 Cuối cùngCuối cùng

Bookmarks

Quyền Sử Dụng Ở Diễn Ðàn

  • Bạn không được phép viết chủ đề mới
  • Bạn không được phép viết trả lời
  • Bạn không được phép gởi đính kèm
  • Bạn không được phép chỉnh sửa bài viết
  •  
$ads2ben
Lên Trên! Xuống Dưới!