Kết quả từ 1 tới 3 trên 3
  1. #1
    HD-upscale malayvuong's Avatar
    Đăng ký
    02-10-10
    Bài viết
    39
    Thanks
    11
    Thanked
    2.735
    cR
    12

    Mặc định [Hoạt Hình | 1 Link] - Nobita và Cuốn nhật ký tương lai



    Code:
    Format                           : AVI
    Format/Info                      : Audio Video Interleave
    File size                        : 168 MiB
    Duration                         : 16mn 16s
    Overall bit rate                 : 1 441 Kbps
    Writing application              : VirtualDubMod 1.5.10.2 (build 2540/release)
    Writing library                  : VirtualDubMod build 2540/release
    
    Video
    ID                               : 0
    Format                           : MPEG-4 Visual
    Format profile                   : Advanced Simple@L5
    Format settings, BVOP            : Yes
    Format settings, QPel            : No
    Format settings, GMC             : No warppoints
    Format settings, Matrix          : Default (H.263)
    Muxing mode                      : Packed bitstream
    Codec ID                         : XVID
    Codec ID/Hint                    : XviD
    Duration                         : 16mn 16s
    Bit rate                         : 1 373 Kbps
    Width                            : 720 pixels
    Height                           : 540 pixels
    Display aspect ratio             : 4:3
    Frame rate                       : 29.970 fps
    Color space                      : YUV
    Chroma subsampling               : 4:2:0
    Bit depth                        : 8 bits
    Scan type                        : Progressive
    Bits/(Pixel*Frame)               : 0.118
    Stream size                      : 160 MiB (95%)
    Writing library                  : XviD 1.2.1 (UTC 2008-12-04)
    
    Audio
    ID                               : 1
    Format                           : MPEG Audio
    Format version                   : Version 2
    Format profile                   : Layer 3
    Mode                             : Joint stereo
    Mode extension                   : Intensity Stereo
    Codec ID                         : 55
    Codec ID/Hint                    : MP3
    Duration                         : 16mn 15s
    Bit rate mode                    : Constant
    Bit rate                         : 56.0 Kbps
    Channel(s)                       : 2 channels
    Sampling rate                    : 24.0 KHz
    Stream size                      : 6.51 MiB (4%)
    Alignment                        : Split accross interleaves
    Interleave, duration             : 33 ms (1.00 video frame)
    Interleave, preload duration     : 500 ms
    Bạn nhấn nút Thanks, sau đó nhấn F5 để lấy link nhé!

    Bài viết lũn cũn mong mọi người thông cảm!


    -----------------------------------------------------------------

  2. 8 người đã cảm ơn malayvuong


  3. #2
    HD-720p ntl_bg's Avatar
    Đăng ký
    27-04-10
    Bài viết
    240
    Thanks
    874
    Thanked
    188
    cR
    503

    Mặc định Ðề: [Hoạt Hình | 1 Link] - Nobita và Cuốn nhật ký tương lai

    post sai box rùi bạn ơi, lần sau post vào mục non-HD nha

  4. #3
    HD-upscale malayvuong's Avatar
    Đăng ký
    02-10-10
    Bài viết
    39
    Thanks
    11
    Thanked
    2.735
    cR
    12

    Mặc định Ðề: [Hoạt Hình | 1 Link] - Nobita và Cuốn nhật ký tương lai

    Nhờ Mod move bài viết qua mục Non-HD dùm em nha!
    Cảm ơn Mod nhiều! ^^

Tags for this Thread

Bookmarks

Quyền Sử Dụng Ở Diễn Ðàn

  • Bạn không được phép viết chủ đề mới
  • Bạn không được phép viết trả lời
  • Bạn không được phép gởi đính kèm
  • Bạn không được phép chỉnh sửa bài viết
  •  
Lên Trên! Xuống Dưới!