Kết quả từ 1 tới 1 trên 1
  1. #1
    Digital-2k bothan1's Avatar
    Đăng ký
    21-09-11
    Bài viết
    1.567
    Thanks
    333
    Thanked
    24.081
    cR
    145

    Exclamation [Hài Tết | 1 Link] Vượng Râu - 2013

    Vượng Râu (2013) DVD05-Hài Tết Năm 2013
    Code:
    Complete name                  :Vuong Rau 2013 DVD5
    Format                         : MPEG-PS
    File size                      : 3.2 GB
    Duration                       : 23mn 5s
    Overall bit rate mode          : Variable
    Overall bit rate               : 6 198 Kbps
    Writing library                : encoded by TMPGEnc Authoring Works 4 Version. 4.0.7.32
    
    
    Video
    ID                             : 224 (0xE0)
    Format                         : MPEG Video
    Format version                 : Version 2
    Format profile                 : Main@Main
    Format settings, BVOP          : Yes
    Format settings, Matrix        : Custom
    Duration                       : 23mn 5s
    Bit rate mode                  : Variable
    Bit rate                       : 5 691 Kbps
    Maximum bit rate               : 8 000 Kbps
    Width                          : 720 pixels
    Height                         : 480 pixels
    Display aspect ratio           : 16:9
    Frame rate                     : 29.970 fps
    Standard                       : NTSC
    Color space                    : YUV
    Chroma subsampling             : 4:2:0
    Bit depth                      : 8 bits
    Scan type                      : Progressive
    Compression mode               : Lossy
    Bits/(Pixel*Frame)             : 0.549
    Stream size                    : 940 MiB (92%)
    Writing library                : TMPGEnc / Authoring Works 4 Version. 4.0.7.32 Authoring Works 4 Version. 4.0.7.32
    Color primaries                : SMPTE 170M
    Transfer characteristics       : SMPTE 170M
    Matrix coefficients            : SMPTE 170M
    
    
    Audio
    ID                             : 192 (0xC0)
    Format                         : MPEG Audio
    Format version                 : Version 1
    Format profile                 : Layer 2
    Duration                       : 23mn 5s
    Bit rate mode                  : Constant
    Bit rate                       : 384 Kbps
    Channel(s)                     : 2 channels
    Sampling rate                  : 48.0 KHz
    Compression mode               : Lossy
    Stream size                    : 63.4 MiB (6%)
    Hài tết Vượng Râu 2013 cũng đã được phát hành. Ngay sau khi xem trailer hai tet 2013 của Mr Vượng Râu (nghệ sĩ Công Vượng), rất nhiều người đã háo hức trông mong chờ đợi vào 1 tiểu phẩm thực sự hay, thực sự hấp dẫn này. Và ngay hôm nay, các bạn đã có thể xem, cảm nhận và đánh giá về tiểu phẩm Hài Tết của Mr. Vượng Râu 2013 này.


    -----------------------------------------------------------------
    Kho phim đặc sắc khổng lồ: http://up.4share.vn/d/3809010d0e010c0e
    Trang DOWNLOAD Phim của 4Share: http://phimnet.us/home.html
    Kho phim 18+: http://up.4share.vn/d/6153525057575054

  2. 8 người đã cảm ơn bothan1


Bookmarks

Quyền Sử Dụng Ở Diễn Ðàn

  • Bạn không được phép viết chủ đề mới
  • Bạn không được phép viết trả lời
  • Bạn không được phép gởi đính kèm
  • Bạn không được phép chỉnh sửa bài viết
  •  
Lên Trên! Xuống Dưới!