Trang 1/3 1 2 3 Cuối cùngCuối cùng
Kết quả từ 1 tới 10 trên 21
  1. #1
    HD-720p MT-NjK3's Avatar
    Đăng ký
    23-07-09
    Bài viết
    310
    Thanks
    914
    Thanked
    947
    cR
    197

    Mặc định PHCD073: Trường Vũ - Nó Và Tôi (2001) [WAV] {EAC/Log 99%}

    Gửi A,E 1 Album Hay....
    Trường Vũ - Nó Và Tôi





    Bạn nhấn nút Thanks, sau đó nhấn F5 để lấy link nhé!
    Rip: EAC
    Nguồn: MT-NjK3
    Hình Kèm Theo


    -----------------------------------------------------------------
    Chỉnh sửa nội dung bởi: MT-NjK3, 26-02-2011 lúc 15:26
    HDvietnam.com - "Niềm Đam Mê Cháy Bỏng"
    Em giờ phút đêm nay đang ở đâu?Hay bước chân chung vui cùng ai...
    Em dù bấy lâu ta luôn gần nhau, nhưng trái tim kia không hề yêu!

  2. 394 người đã cảm ơn MT-NjK3


  3. #2
    HD-720p MT-NjK3's Avatar
    Đăng ký
    23-07-09
    Bài viết
    310
    Thanks
    914
    Thanked
    947
    cR
    197

    Mặc định Ðề: PHCD73 - Trường Vũ - Nó Và Tôi [WAV + CUE]

    Pó tay! Chỉnh đi chỉnh lại không load được ảnh.hic
    HDvietnam.com - "Niềm Đam Mê Cháy Bỏng"
    Em giờ phút đêm nay đang ở đâu?Hay bước chân chung vui cùng ai...
    Em dù bấy lâu ta luôn gần nhau, nhưng trái tim kia không hề yêu!

  4. 2 người đã cảm ơn MT-NjK3


  5. #3
    HD-720p MT-NjK3's Avatar
    Đăng ký
    23-07-09
    Bài viết
    310
    Thanks
    914
    Thanked
    947
    cR
    197

    Mặc định Ðề: PHCD73 - Trường Vũ - Nó Và Tôi [WAV + CUE]

    Trích Nguyên văn bởi vinhmien1977 Xem bài viết
    hai part1 giong nhau bac chu oi khong co part2
    Đã chỉnh lại...Mời các bao down về test chất lượng...Em mới học rip
    HDvietnam.com - "Niềm Đam Mê Cháy Bỏng"
    Em giờ phút đêm nay đang ở đâu?Hay bước chân chung vui cùng ai...
    Em dù bấy lâu ta luôn gần nhau, nhưng trái tim kia không hề yêu!

  6. 3 người đã cảm ơn MT-NjK3


  7. #4
    UltraHD Local HD
    Moderator
    Ngọ Xuân Giao's Avatar
    Đăng ký
    30-12-08
    Bài viết
    13.350
    Thanks
    2.375
    Thanked
    484.087
    cR
    538

    Mặc định Ðề: PHCD73 - Trường Vũ - Nó Và Tôi [WAV + CUE]

    Trích Nguyên văn bởi MT-NjK3 Xem bài viết
    Đã chỉnh lại...Mời các bao down về test chất lượng...Em mới học rip
    Bác rip theo bài hướng dẫn của arryo chứ?

  8. The Following User Says Thank You to Ngọ Xuân Giao For This Useful Post:


  9. #5
    HD-upscale tun09's Avatar
    Đăng ký
    02-12-10
    Bài viết
    25
    Thanks
    38
    Thanked
    50
    cR
    24

    Mặc định Ðề: PHCD73: Trường Vũ - Nó Và Tôi [WAV+CUE]

    thanks CD hay quá mong bác cứ thế phát huy nhé

  10. 2 người đã cảm ơn tun09


  11. #6
    HD-720p MT-NjK3's Avatar
    Đăng ký
    23-07-09
    Bài viết
    310
    Thanks
    914
    Thanked
    947
    cR
    197

    Mặc định Ðề: PHCD73 - Trường Vũ - Nó Và Tôi [WAV + CUE]

    Đúng vậy bác ạ...Mời bác ủng hộ
    HDvietnam.com - "Niềm Đam Mê Cháy Bỏng"
    Em giờ phút đêm nay đang ở đâu?Hay bước chân chung vui cùng ai...
    Em dù bấy lâu ta luôn gần nhau, nhưng trái tim kia không hề yêu!

  12. The Following User Says Thank You to MT-NjK3 For This Useful Post:


  13. #7
    UltraHD Local HD
    Moderator
    Ngọ Xuân Giao's Avatar
    Đăng ký
    30-12-08
    Bài viết
    13.350
    Thanks
    2.375
    Thanked
    484.087
    cR
    538

    Mặc định Ðề: PHCD73 - Trường Vũ - Nó Và Tôi [WAV + CUE]

    Trích Nguyên văn bởi MT-NjK3 Xem bài viết
    Đúng vậy bác ạ...Mời bác ủng hộ
    Bác trả lời cho câu hỏi trên của e à
    Để e down về check hàng của bác coi đã perfect chưa nhé

  14. 2 người đã cảm ơn Ngọ Xuân Giao


  15. #8
    HD-720p MT-NjK3's Avatar
    Đăng ký
    23-07-09
    Bài viết
    310
    Thanks
    914
    Thanked
    947
    cR
    197

    Mặc định Ðề: PHCD73 - Trường Vũ - Nó Và Tôi [WAV + CUE]

    Em làm theo hướng dẫn của bác arryo mà...Bác dow về test kiểm tra xem bản rip của em có đạt ISO 9001 không>
    HDvietnam.com - "Niềm Đam Mê Cháy Bỏng"
    Em giờ phút đêm nay đang ở đâu?Hay bước chân chung vui cùng ai...
    Em dù bấy lâu ta luôn gần nhau, nhưng trái tim kia không hề yêu!

  16. The Following User Says Thank You to MT-NjK3 For This Useful Post:


  17. #9
    UltraHD Local HD
    Moderator
    Ngọ Xuân Giao's Avatar
    Đăng ký
    30-12-08
    Bài viết
    13.350
    Thanks
    2.375
    Thanked
    484.087
    cR
    538

    Mặc định Ðề: PHCD73 - Trường Vũ - Nó Và Tôi [WAV + CUE]

    Trích Nguyên văn bởi MT-NjK3 Xem bài viết
    Em làm theo hướng dẫn của bác arryo mà...Bác dow về test kiểm tra xem bản rip của em có đạt ISO 9001 không>
    Đấy, cứ mải chém gió quên chưa down, e down ngay và check ngay đây. Bác đợi kết quả nhé, đạt ISO 9001 e sẽ tặng bác ngay 1 vé tới "thiên đường"

  18. The Following User Says Thank You to Ngọ Xuân Giao For This Useful Post:


  19. #10
    UltraHD Local HD
    Moderator
    Ngọ Xuân Giao's Avatar
    Đăng ký
    30-12-08
    Bài viết
    13.350
    Thanks
    2.375
    Thanked
    484.087
    cR
    538

    Mặc định Ðề: PHCD73: Trường Vũ - Nó Và Tôi (2001) [WAV/EAC/Log (99%)]

    Log của bác gần đạt 100%. Mà sao bác rip FLAC lại share WAV chi vậy
    Code:
    Exact Audio Copy V1.0 beta 1 from 15. November 2010
    
    EAC extraction logfile from 18. February 2011, 20:05
    
    Truong Vu / No Va Toi
    
    Used drive  : HP      DVD Writer 1270r   Adapter: 3  ID: 1
    
    Read mode               : Secure
    Utilize accurate stream : Yes
    Defeat audio cache      : Yes
    Make use of C2 pointers : No
    
    Read offset correction                      : 48
    Overread into Lead-In and Lead-Out          : No
    Fill up missing offset samples with silence : Yes
    Delete leading and trailing silent blocks   : No
    Null samples used in CRC calculations       : Yes
    Used interface                              : Native Win32 interface for Win NT & 2000
    Gap handling                                : Appended to previous track
    
    Used output format              : User Defined Encoder
    Selected bitrate                : 1024 kBit/s
    Quality                         : High
    Add ID3 tag                     : No
    Command line compressor         : C:\Program Files\FLAC\FLAC frontend.exe
    Additional command line options : -8 -V -T "ARTIST=%a" -T "TITLE=%t" -T "ALBUM=%g" -T "DATE=%y" -T "TRACKNUMBER=%n" -T "TOTALTRACKS=%x" -T "GENRE=%m" -T "ALBUM ARTIST=%v" -T "ALBUMARTIST=%v" -T "COMMENT=EAC V0.99 prebeta 5, Secure Mode, Test & Copy, Accurat
    
    
    TOC of the extracted CD
    
         Track |   Start  |  Length  | Start sector | End sector 
        ---------------------------------------------------------
            1  |  0:00.00 |  5:19.09 |         0    |    23933   
            2  |  5:19.09 |  5:27.19 |     23934    |    48477   
            3  | 10:46.28 |  6:21.22 |     48478    |    77074   
            4  | 17:07.50 |  5:19.15 |     77075    |   101014   
            5  | 22:26.65 |  5:30.16 |    101015    |   125780   
            6  | 27:57.06 |  5:30.52 |    125781    |   150582   
            7  | 33:27.58 |  5:44.55 |    150583    |   176437   
            8  | 39:12.38 |  4:00.28 |    176438    |   194465   
            9  | 43:12.66 |  6:01.07 |    194466    |   221547   
           10  | 49:13.73 |  4:14.04 |    221548    |   240601   
    
    
    Track  1
    
         Filename E:\CDrip\Truong Vu - No Va Toi (2001) [FLAC]\01 - Ngay Do Xa Roi.wav
    
         Pre-gap length  0:00:02.00
    
         Peak level 100.0 %
         Extraction speed 2.2 X
         Track quality 99.9 %
         Test CRC 89C2985D
         Copy CRC 89C2985D
         Track not present in AccurateRip database
         Copy OK
    
    Track  2
    
         Filename E:\CDrip\Truong Vu - No Va Toi (2001) [FLAC]\02 - Vong Gac Dem Suong.wav
    
         Pre-gap length  0:00:01.74
    
         Peak level 100.0 %
         Extraction speed 2.8 X
         Track quality 100.0 %
         Test CRC 55EF4DBB
         Copy CRC 55EF4DBB
         Track not present in AccurateRip database
         Copy OK
    
    Track  3
    
         Filename E:\CDrip\Truong Vu - No Va Toi (2001) [FLAC]\03 - Chuyen Tinh Nguoi Dan Ao.wav
    
         Pre-gap length  0:00:01.74
    
         Peak level 100.0 %
         Extraction speed 2.7 X
         Track quality 99.9 %
         Test CRC B205B3FF
         Copy CRC B205B3FF
         Track not present in AccurateRip database
         Copy OK
    
    Track  4
    
         Filename E:\CDrip\Truong Vu - No Va Toi (2001) [FLAC]\04 - Trang Tan Tren He Pho.wav
    
         Pre-gap length  0:00:01.74
    
         Peak level 100.0 %
         Extraction speed 3.4 X
         Track quality 100.0 %
         Test CRC F3B97567
         Copy CRC F3B97567
         Track not present in AccurateRip database
         Copy OK
    
    Track  5
    
         Filename E:\CDrip\Truong Vu - No Va Toi (2001) [FLAC]\05 - Loi Ke Dang Trinh.wav
    
         Pre-gap length  0:00:01.74
    
         Peak level 100.0 %
         Extraction speed 3.7 X
         Track quality 100.0 %
         Test CRC 1B29D1C8
         Copy CRC 1B29D1C8
         Track not present in AccurateRip database
         Copy OK
    
    Track  6
    
         Filename E:\CDrip\Truong Vu - No Va Toi (2001) [FLAC]\06 - No Va Toi.wav
    
         Pre-gap length  0:00:01.74
    
         Peak level 100.0 %
         Extraction speed 3.9 X
         Track quality 100.0 %
         Test CRC 6894ED52
         Copy CRC 6894ED52
         Track not present in AccurateRip database
         Copy OK
    
    Track  7
    
         Filename E:\CDrip\Truong Vu - No Va Toi (2001) [FLAC]\07 - Loi Tinh Viet Voi.wav
    
         Pre-gap length  0:00:01.74
    
         Peak level 100.0 %
         Extraction speed 3.8 X
         Track quality 99.9 %
         Test CRC 81C91407
         Copy CRC 81C91407
         Track not present in AccurateRip database
         Copy OK
    
    Track  8
    
         Filename E:\CDrip\Truong Vu - No Va Toi (2001) [FLAC]\08 - Duoc Tin Em Lay Chong.wav
    
         Pre-gap length  0:00:01.74
    
         Peak level 100.0 %
         Extraction speed 4.1 X
         Track quality 100.0 %
         Test CRC 69FAC6C3
         Copy CRC 69FAC6C3
         Track not present in AccurateRip database
         Copy OK
    
    Track  9
    
         Filename E:\CDrip\Truong Vu - No Va Toi (2001) [FLAC]\09 - Ngo Hon Qua Dem.wav
    
         Pre-gap length  0:00:01.74
    
         Peak level 100.0 %
         Extraction speed 4.1 X
         Track quality 99.9 %
         Test CRC 15B5054D
         Copy CRC 15B5054D
         Track not present in AccurateRip database
         Copy OK
    
    Track 10
    
         Filename E:\CDrip\Truong Vu - No Va Toi (2001) [FLAC]\10 - Tinh Bo Vo.wav
    
         Pre-gap length  0:00:01.74
    
         Peak level 100.0 %
         Extraction speed 4.0 X
         Track quality 99.9 %
         Test CRC 7F6598C5
         Copy CRC 7F6598C5
         Track not present in AccurateRip database
         Copy OK
    
    
    None of the tracks are present in the AccurateRip database
    
    No errors occurred
    
    End of status report

  20. 5 người đã cảm ơn Ngọ Xuân Giao


Trang 1/3 1 2 3 Cuối cùngCuối cùng

Bookmarks

Quyền Sử Dụng Ở Diễn Ðàn

  • Bạn không được phép viết chủ đề mới
  • Bạn không được phép viết trả lời
  • Bạn không được phép gởi đính kèm
  • Bạn không được phép chỉnh sửa bài viết
  •  
Lên Trên! Xuống Dưới!