Trang 1/3 1 2 3 Cuối cùngCuối cùng
Kết quả từ 1 tới 10 trên 24
  1. #1
    Digital-2k doanvanhuy's Avatar
    Đăng ký
    14-05-09
    Bài viết
    1.887
    Thanks
    255
    Thanked
    117.125
    cR
    491

    Smile [Perf] Y Phụng - Bóng Nhỏ Đường Chiều (1080i Bluray DD5.1 H264)

    Bóng Nhỏ Đường Chiều - Y Phụng 1080i Bluray








    Code:
    
    General
    ID                               : 1 (0x1)
    Complete name                    : I:\Bong Nho Duong Chieu - Y Phung 1080i Bluray.m2ts
    Format                           : BDAV
    Format/Info                      : Blu-ray Video
    File size                        : 696 MiB
    Duration                         : 3mn 59s
    Overall bit rate                 : 24.3 Mbps
    Maximum Overall bit rate         : 35.5 Mbps
    
    Video
    ID                               : 4113 (0x1011)
    Menu ID                          : 1 (0x1)
    Format                           : MPEG Video
    Format version                   : Version 2
    Format profile                   : Main@High
    Format settings, BVOP            : Yes
    Format settings, Matrix          : Default
    Format settings, GOP             : M=3, N=15
    Codec ID                         : 2
    Duration                         : 3mn 59s
    Bit rate mode                    : Variable
    Bit rate                         : 22.1 Mbps
    Nominal bit rate                 : 35.0 Mbps
    Width                            : 1 920 pixels
    Height                           : 1 080 pixels
    Display aspect ratio             : 16:9
    Frame rate                       : 29.970 fps
    Color space                      : YUV
    Chroma subsampling               : 4:2:0
    Bit depth                        : 8 bits
    Scan type                        : Interlaced
    Scan order                       : Top Field First
    Compression mode                 : Lossy
    Bits/(Pixel*Frame)               : 0.356
    Stream size                      : 632 MiB (91%)
    
    Audio #1
    ID                               : 4352 (0x1100)
    Menu ID                          : 1 (0x1)
    Format                           : AC-3
    Format/Info                      : Audio Coding 3
    Mode extension                   : CM (complete main)
    Codec ID                         : 129
    Duration                         : 3mn 59s
    Bit rate mode                    : Constant
    Bit rate                         : 640 Kbps
    Channel(s)                       : 2 channels
    Channel positions                : Front: L R
    Sampling rate                    : 48.0 KHz
    Bit depth                        : 16 bits
    Compression mode                 : Lossy
    Delay relative to video          : -105ms
    Stream size                      : 18.3 MiB (3%)
    Language                         : English
    
    Audio #2
    ID                               : 4353 (0x1101)
    Menu ID                          : 1 (0x1)
    Format                           : AC-3
    Format/Info                      : Audio Coding 3
    Mode extension                   : CM (complete main)
    Codec ID                         : 129
    Duration                         : 3mn 59s
    Bit rate mode                    : Constant
    Bit rate                         : 640 Kbps
    Channel(s)                       : 6 channels
    Channel positions                : Front: L C R, Side: L R, LFE
    Sampling rate                    : 48.0 KHz
    Bit depth                        : 16 bits
    Compression mode                 : Lossy
    Delay relative to video          : -105ms
    Stream size                      : 18.3 MiB (3%)
    Language                         : English
    



    Bạn nhấn nút Thanks, sau đó nhấn F5 để lấy link nhé!



    Bạn nhấn nút Thanks, sau đó nhấn F5 để lấy link nhé!



    Code:
    hdmovie.vn


    -----------------------------------------------------------------
    Chỉnh sửa nội dung bởi: doanvanhuy, 26-07-2011 lúc 16:59 Lý do: Add Link MF.
    ACC MF của em đã die nên tất cả LL đã up mất hết rồi. Không thể reup được. Các bác thông cảm nhé.

  2. 167 người đã cảm ơn doanvanhuy


  3. #2
    HD-1080i Uploader
    cubine's Avatar
    Đăng ký
    27-06-09
    Bài viết
    937
    Thanks
    1.017
    Thanked
    39.101
    cR
    513

    Mặc định Ðề: Bóng Nhỏ Đường Chiều - Y Phụng 1080i Bluray AC3 5.1 {Bluray Untouch}

    Post thêm vài bài khác trong chương trình nữa đi bạn!

  4. The Following User Says Thank You to cubine For This Useful Post:


  5. #3
    UltraHD tusontay's Avatar
    Đăng ký
    02-04-10
    Bài viết
    20.016
    Thanks
    7.918
    Thanked
    73.876
    cR
    2.055

    Mặc định Ðề: Bóng Nhỏ Đường Chiều - Y Phụng 1080i Bluray AC3 5.1 {Bluray Untouch}

    Huy dạo này lại nhảy sang box HD à?
    Bán trọn bộ dàn nghe nhạc
    Tò mò là tính xấu...!? ♫ ♪♫ ♪

    Welcome! HD Sơn Tây ® Giao lưu & Chia sẻ™ ♫ ♪♫ ♪

  6. The Following User Says Thank You to tusontay For This Useful Post:


  7. #4
    Digital-2k doanvanhuy's Avatar
    Đăng ký
    14-05-09
    Bài viết
    1.887
    Thanks
    255
    Thanked
    117.125
    cR
    491

    Mặc định Ðề: Bóng Nhỏ Đường Chiều - Y Phụng 1080i Bluray AC3 5.1 {Bluray Untouch}

    Trích Nguyên văn bởi cubine Xem bài viết
    Post thêm vài bài khác trong chương trình nữa đi bạn!
    Up được nhưng cắt hơi khó vì ko rõ thời gian từng bài và khi cắt ko được đúng thời gian của bài mình cần. Có khi bị quá thời gian hoặc bị thiếu thời gian của bài mình cần.
    ACC MF của em đã die nên tất cả LL đã up mất hết rồi. Không thể reup được. Các bác thông cảm nhé.

  8. #5
    Digital-2k doanvanhuy's Avatar
    Đăng ký
    14-05-09
    Bài viết
    1.887
    Thanks
    255
    Thanked
    117.125
    cR
    491

    Mặc định Ðề: Bóng Nhỏ Đường Chiều - Y Phụng 1080i Bluray AC3 5.1 {Bluray Untouch}

    Trích Nguyên văn bởi tusontay Xem bài viết
    Huy dạo này lại nhảy sang box HD à?
    Chỗ nào hay thì em nhảy qua chơi tý cho vui.
    ACC MF của em đã die nên tất cả LL đã up mất hết rồi. Không thể reup được. Các bác thông cảm nhé.

  9. The Following User Says Thank You to doanvanhuy For This Useful Post:


  10. #6
    HD-1080i nhocshock6789's Avatar
    Đăng ký
    13-05-10
    Bài viết
    571
    Thanks
    585
    Thanked
    150
    cR
    67

    Mặc định Ðề: Bóng Nhỏ Đường Chiều - Y Phụng 1080i Bluray AC3 5.1

    Down về xem chất lương thế nào! Thankssss

  11. #7
    HD-upscale nguyenngocluan's Avatar
    Đăng ký
    16-06-09
    Bài viết
    23
    Thanks
    321
    Thanked
    26
    cR
    314

    Mặc định Ðề: Bóng Nhỏ Đường Chiều - Y Phụng 1080i Bluray AC3 5.1

    con nữa ko bạn, up tiếp đi. Xem mãn nhãn quá.hihihi.

  12. #8
    Digital-2k Cựu moderator
    NhuQuynhCF's Avatar
    Đăng ký
    21-10-09
    Bài viết
    3.051
    Thanks
    0
    Thanked
    78.236
    cR
    0

    Mặc định Ðề: Bóng Nhỏ Đường Chiều - Y Phụng 1080i Bluray AC3 5.1


  13. #9
    Digital-2k doanvanhuy's Avatar
    Đăng ký
    14-05-09
    Bài viết
    1.887
    Thanks
    255
    Thanked
    117.125
    cR
    491

    Mặc định Ðề: Bóng Nhỏ Đường Chiều - Y Phụng 1080i Bluray AC3 5.1

    Thêm 1 bài nữa mà em thích. up tặng các bác luôn.

    http://www.hdvietnam.com/diendan/50-...ml#post1849480
    ACC MF của em đã die nên tất cả LL đã up mất hết rồi. Không thể reup được. Các bác thông cảm nhé.

  14. #10
    Banned QuangHungYCT's Avatar
    Đăng ký
    04-12-09
    Bài viết
    1.489
    Thanks
    363
    Thanked
    7.959
    cR
    383

    Mặc định Ðề: Bóng Nhỏ Đường Chiều - Y Phụng 1080i Bluray AC3 5.1 {Bluray Untouch}

    Trích Nguyên văn bởi doanvanhuy Xem bài viết
    Up được nhưng cắt hơi khó vì ko rõ thời gian từng bài và khi cắt ko được đúng thời gian của bài mình cần. Có khi bị quá thời gian hoặc bị thiếu thời gian của bài mình cần.
    Thì mình cứ cắt đầu và đuôi cho dư đi pác Huy, rồi thêm hiệu ứng fade in và fade out vào là đẹp như TV chiếu à .

    Cái phần dư sẽ bị fade mờ đi . Nhìn cũng pro lắm

Trang 1/3 1 2 3 Cuối cùngCuối cùng

Bookmarks

Quyền Sử Dụng Ở Diễn Ðàn

  • Bạn không được phép viết chủ đề mới
  • Bạn không được phép viết trả lời
  • Bạn không được phép gởi đính kèm
  • Bạn không được phép chỉnh sửa bài viết
  •  
Lên Trên! Xuống Dưới!