Trang 1/2 1 2 Cuối cùngCuối cùng
Kết quả từ 1 tới 10 trên 16
  1. #1

    Mặc định HD Player không đọc được file .mkv???

    Mình có 2 file .mkv vậy mà 1 file đọc được trên Playon Mini và WD HD còn một cái thì bị trục trặc: làm treo máy WD HD, còn trên Playon mini thì có tiếng hok có hình. Trên PC thì đọc được hết cả 2. Bạn nào bít cách convert file này để đọc được trên HD player thì chỉ dùm nha. đây là info của 2 file mkv:

    --------------------------------------------------------------------------
    File thứ nhất (đọc tốt)
    General
    Complete name : E:\PNCT\PNCT-01.mkv
    Format : Matroska
    File size : 1.07 GiB
    Duration : 43mn 43s
    Overall bit rate : 3 488 Kbps
    Encoded date : UTC 2010-06-15 15:17:55
    Writing application : mkvmerge v4.0.0 ('The Stars were mine') built on Jun 6 2010 16:18:42
    Writing library : libebml v1.0.0 + libmatroska v1.0.0

    Video
    ID : 1
    Format : AVC
    Format/Info : Advanced Video Codec
    Format profile : Main@L3.1
    Format settings, CABAC : Yes
    Format settings, ReFrames : 2 frames
    Muxing mode : Container profile=Unknown@3.1
    Codec ID : V_MPEG4/ISO/AVC
    Duration : 43mn 43s
    Bit rate : 2 906 Kbps
    Nominal bit rate : 3 000 Kbps
    Width : 1 280 pixels
    Height : 720 pixels
    Display aspect ratio : 16:9
    Frame rate : 25.000 fps
    Resolution : 8 bits
    Colorimetry : 4:2:0
    Scan type : Progressive
    Bits/(Pixel*Frame) : 0.126
    Stream size : 909 MiB (83%)
    Writing library : x264 core 80 r1376M 3feaec2
    Encoding settings : cabac=1 / ref=1 / deblock=1:0:0 / analyse=0x1:0x131 / me=hex / subme=4 / psy=1 / psy_rd=0.0:0.0 / mixed_ref=0 / me_range=16 / chroma_me=1 / trellis=0 / 8x8dct=0 / cqm=0 / deadzone=21,11 / fast_pskip=1 / chroma_qp_offset=0 / threads=6 / sliced_threads=0 / nr=0 / decimate=1 / mbaff=0 / constrained_intra=0 / bframes=3 / b_pyramid=0 / b_adapt=1 / b_bias=0 / direct=1 / wpredb=1 / wpredp=2 / keyint=250 / keyint_min=25 / scenecut=40 / rc_lookahead=40 / rc=abr / mbtree=1 / bitrate=3000 / ratetol=1.0 / qcomp=0.60 / qpmin=10 / qpmax=51 / qpstep=4 / ip_ratio=1.40 / aq=1:1.00

    Audio #1
    ID : 2
    Format : MPEG Audio
    Format version : Version 1
    Format profile : Layer 3
    Codec ID : A_MPEG/L3
    Codec ID/Hint : MP3
    Duration : 43mn 43s
    Bit rate mode : Constant
    Bit rate : 128 Kbps
    Channel(s) : 2 channels
    Sampling rate : 48.0 KHz
    Stream size : 40.0 MiB (4%)
    Title : Tiếng Việt (SanYang Lồng Tiếng)
    Writing library : LAME3.98.4ªªªª•$–ÈÚ
    Language : Vietnamese

    Audio #2
    ID : 3
    Format : AC-3
    Format/Info : Audio Coding 3
    Format_Settings_ModeExtension : CM (complete main)
    Codec ID : A_AC3
    Duration : 43mn 43s
    Bit rate mode : Constant
    Bit rate : 384 Kbps
    Channel(s) : 6 channels
    Channel positions : Front: L C R, Side: L R, LFE
    Sampling rate : 48.0 KHz
    Video delay : 3ms
    Stream size : 120 MiB (11%)
    Title : Tiếng Quảng Đông
    Language : Chinese

    Text
    ID : 4
    Format : UTF-8
    Codec ID : S_TEXT/UTF8
    Codec ID/Info : UTF-8 Plain Text
    ------------------------------------------------------------------------------
    File thứ 2 (không đọc trên WD HD, mất hình trên Playon mini)
    General
    Complete name : E:\BTL-01.mkv
    Format : Matroska
    File size : 1.01 GiB
    Duration : 44mn 29s
    Overall bit rate : 3 249 Kbps
    Encoded date : UTC 2010-08-04 04:07:25
    Writing application : mkvmerge v4.2.0 ('No Talking') built on Jul 28 2010 18:38:23
    Writing library : libebml v1.0.0 + libmatroska v1.0.0

    Video
    ID : 1
    Format : AVC
    Format/Info : Advanced Video Codec
    Format profile : High@L4.1
    Format settings, CABAC : Yes
    Format settings, ReFrames : 3 frames
    Muxing mode : Container profile=Unknown@4.1
    Codec ID : V_MPEG4/ISO/AVC
    Duration : 44mn 29s
    Nominal bit rate : 3 000 Kbps
    Width : 1 280 pixels
    Height : 720 pixels
    Display aspect ratio : 16:9
    Frame rate : 25.000 fps
    Resolution : 8 bits
    Colorimetry : 4:2:0
    Scan type : Progressive
    Bits/(Pixel*Frame) : 0.130
    Writing library : x264 core 96 r1613 81e75e9
    Encoding settings : cabac=1 / ref=3 / deblock=1:0:0 / analyse=0x3:0x113 / me=hex / subme=4 / psy=1 / psy_rd=0.00:0.00 / mixed_ref=1 / me_range=16 / chroma_me=1 / trellis=1 / 8x8dct=1 / cqm=0 / deadzone=21,11 / fast_pskip=1 / chroma_qp_offset=0 / threads=6 / sliced_threads=0 / nr=0 / decimate=1 / interlaced=0 / constrained_intra=0 / bframes=3 / b_pyramid=0 / b_adapt=1 / b_bias=0 / direct=3 / weightb=1 / weightp=2 / keyint=250 / keyint_min=25 / scenecut=40 / intra_refresh=0 / rc_lookahead=40 / rc=2pass / mbtree=1 / bitrate=3000 / ratetol=4.0 / qcomp=0.40 / qpmin=12 / qpmax=51 / qpstep=4 / cplxblur=20.0 / qblur=0.5 / vbv_maxrate=24000 / vbv_bufsize=9000 / ip_ratio=1.40 / aq=1:1.00 / nal_hrd=none

    Audio #1
    ID : 2
    Format : MPEG Audio
    Format version : Version 1
    Format profile : Layer 3
    Codec ID : A_MPEG/L3
    Codec ID/Hint : MP3
    Duration : 44mn 29s
    Bit rate mode : Constant
    Bit rate : 128 Kbps
    Channel(s) : 2 channels
    Sampling rate : 48.0 KHz
    Stream size : 40.7 MiB (4%)
    Title : Tiếng Việt (SanYang Lồng Tiếng)
    Writing library : LAME3.98.4
    Language : Vietnamese

    Audio #2
    ID : 3
    Format : AAC
    Format/Info : Advanced Audio Codec
    Format version : Version 4
    Format profile : LC
    Format settings, SBR : No
    Codec ID : A_AAC
    Duration : 44mn 29s
    Channel(s) : 2 channels
    Channel positions : Front: L R
    Sampling rate : 48.0 KHz
    Title : Tiếng Quảng Đông
    Language : Chinese


    -----------------------------------------------------------------

  2. #2

    Mặc định Ðề: HD Player không đọc được file .mkv???

    tự hỏi tự trả lời...sau khi search trên internet hết 1 ngày em đã bít nguyên nhân và cách khắc phục. bro nào bị problem giống em thì comment để em hướng dẫn cách khắc phục.

  3. #3
    HD-720p thichtatca's Avatar
    Đăng ký
    10-02-10
    Bài viết
    366
    Thanks
    1.794
    Thanked
    590
    cR
    1.332

    Mặc định Ðề: HD Player không đọc được file .mkv???

    Trích Nguyên văn bởi jennykiddycat Xem bài viết
    tự hỏi tự trả lời...sau khi search trên internet hết 1 ngày em đã bít nguyên nhân và cách khắc phục. bro nào bị problem giống em thì comment để em hướng dẫn cách khắc phục.
    Hi bac jeenykiddycat. Em đọc thấy topic của bác thì mừng quá. Em cũng bị tình trạng giống như bác. Nghe được tiếng mà không thấy hình. Em đang xài con HD A.C Ryan. Em có 1 file film là:

    "Release Name: Prince of Persia The Sands of Time 720p BluRay x264-HUBRIS
    Duration:116 mins
    Format: AVC

    Video
    Bit rate: 6592 Kbps
    Width: 1280 pixels
    Height: 536 pixels
    Display aspect ratio: 2.35:1
    Frame rate: 23.976 fps

    Audio
    Format: DTS
    Bit rate: 1 510 Kbps
    Channel(s): 6 channels
    Language: English"

    Em chỉ có được bấy nhiêu thông tin. Mong được bác chỉ giáo. Cám ơn bác

  4. #4
    HD-upscale anhtt10's Avatar
    Đăng ký
    12-10-09
    Bài viết
    17
    Thanks
    0
    Thanked
    4
    cR
    0

    Mặc định Ðề: HD Player không đọc được file .mkv???

    Ôi tôi cũng bị thế, cách sử lý thế nào bác ơi? Thanks
    anhtt10

  5. #5
    HD-1080p khoaifeat's Avatar
    Đăng ký
    24-08-10
    Bài viết
    1.146
    Thanks
    335
    Thanked
    361
    cR
    292

    Mặc định Ðề: HD Player không đọc được file .mkv???

    em nghĩ mấy bác nhỡ tay hoặc trẻ bấm nút chọn độ phân giải hình ảnh xuất rồi, mặc định để cho chiết xuất tín hiệu hình ảnh là tự chọn cho phù hợp với loại tivi bác kết nối.

    vậy giải pháp là cứ để chạy tiếp + bấm nút đó cho nó chạy về đúng độ phân giải để màn hình hiện đúng.

  6. #6
    HD-720p thichtatca's Avatar
    Đăng ký
    10-02-10
    Bài viết
    366
    Thanks
    1.794
    Thanked
    590
    cR
    1.332

    Mặc định Ðề: HD Player không đọc được file .mkv???

    Trích Nguyên văn bởi khoaifeat Xem bài viết
    em nghĩ mấy bác nhỡ tay hoặc trẻ bấm nút chọn độ phân giải hình ảnh xuất rồi, mặc định để cho chiết xuất tín hiệu hình ảnh là tự chọn cho phù hợp với loại tivi bác kết nối.

    vậy giải pháp là cứ để chạy tiếp + bấm nút đó cho nó chạy về đúng độ phân giải để màn hình hiện đúng.
    Cám ơn bác khoaifeat đã cho ý kiến. Nhưng em vẫn giữ nguyên phần set up từ đó đến giờ, và những film khác em đều xem rất tốt. Chỉ co cái film "Prince of Persia" này là không hiển thị được hình ảnh thôi.. Dù vậy em cũng đã thử theo cách mà bác đã chỉ. Nhưng vẫn không hiện gì lên hết.

    Hiện nay trên diễn đàn chỉ có 1 nguồn film này la duy nhất của nhóm HUBRIS nên chưa thể download nguồn khác để xem được. Chán!!!

  7. #7
    Digital-4k tdhvn's Avatar
    Đăng ký
    11-09-08
    Bài viết
    4.567
    Thanks
    113
    Thanked
    1.754
    cR
    383

    Mặc định Ðề: HD Player không đọc được file .mkv???

    Dùng MKV merger lại, chú ý phần Option đặt Compress = NONE là OK.
    HD Player: TViX S1 - TizzBird F30/F10 - Xtreamer Prodigy, HDD Box: CFI 2/4 bays, NAS: QNAP TS-459, Receiver: Pinoneer SC-LX81, Display: LG 55LW5700/ 47LW5700 - Sharp Aquos 52" - Panasonic V50[B]

  8. #8
    HD-720p thichtatca's Avatar
    Đăng ký
    10-02-10
    Bài viết
    366
    Thanks
    1.794
    Thanked
    590
    cR
    1.332

    Mặc định Ðề: HD Player không đọc được file .mkv???

    Trích Nguyên văn bởi tdhvn Xem bài viết
    Dùng MKV merger lại, chú ý phần Option đặt Compress = NONE là OK.
    Cám ơn bác đã giúp đỡ. Em cũng vừa search trên diễn đàn thì tìm được phần hướng dẫn của bác ledung123. Bác nào bị giống em thì xem thử nhé

    Trích Nguyên văn bởi ledung123
    Giải pháp cho các bạn nào không coi được phim trên các đầu HD Player hoặc các phần mềm xem phim ( ngoại trừ MPC )

    1. Các bạn vào đây download software MKV toolnix ver 4.2.0
    2. Cài đặt nó lên máy tính
    3. Chạy chương trình
    4. Add file .mkv vào
    5. Các bạn sẽ thấy 2 dòng xuất hiện được gọi là 2 track. Click vào track thứ 1, ở khung bên dưới , các bạn click vào tab " Extra options", rồi chỉnh lại như sau : Cues= default , Compression= None ( thông số này là cần thiết ) . Tiếp tục như vậy với track thứ 2 .
    6. Ở phần output filename, các bạn nên đặt tên file khác với tên file gốc.
    7. Ấn vào nút " Start muxing" . Quá trình này mất khoảng 9 phút ( đối với máy của mình ) >>>> Xong . Bây giờ các bạn có thể xem phim được rồi đó ( dĩ nhiên là xem với file .mkv vừa được tạo ra ) . Chúc các bạn thành công.

  9. #9
    HD-720p anhbayxi's Avatar
    Đăng ký
    10-12-09
    Bài viết
    364
    Thanks
    327
    Thanked
    674
    cR
    702

    Mặc định Ðề: HD Player không đọc được file .mkv???

    Em cũng theo hướng dẫn của bác ledung123 nhưng ấn nút " start muxing " thì chạy được tí nó báo lỗi. Không biết tại sao nữa. Chẳng lẽ file .mkv đó bị hỏng nhưng tại sao em vẫn xem được trên laptop mà

  10. #10
    HD-upscale mxn007's Avatar
    Đăng ký
    09-12-09
    Bài viết
    85
    Thanks
    58
    Thanked
    31
    cR
    38

    Mặc định Ðề: HD Player không đọc được file .mkv???

    Tôi cũng bị i chang, nhưng làm theo cách của bác ledung123 thì đã thành công. Cám ơn bác.
    Bác Jenny có cách nào khác không? sao lấp lửng thế!

Trang 1/2 1 2 Cuối cùngCuối cùng

Bookmarks

Quyền Sử Dụng Ở Diễn Ðàn

  • Bạn không được phép viết chủ đề mới
  • Bạn không được phép viết trả lời
  • Bạn không được phép gởi đính kèm
  • Bạn không được phép chỉnh sửa bài viết
  •  
Lên Trên! Xuống Dưới!