Trang 3/10 Đầu tiênĐầu tiên 1 2 3 4 5 ... Cuối cùngCuối cùng
Kết quả từ 21 tới 30 trên 92
  1. #21
    HD-1080p namkent's Avatar
    Đăng ký
    31-05-09
    Bài viết
    1.281
    Thanks
    565
    Thanked
    148.841
    cR
    512

    Thumbs up Michael Learn To Rock - Take me to your heart - Behind the scenes



    Code:
    General
    
    Format                           : Matroska
    File size                        : 101 MiB
    Duration                         : 3mn 59s
    Overall bit rate                 : 3 536 Kbps
    Encoded date                     : UTC 2010-12-11 09:23:00
    Writing application              : mkvmerge v2.9.8 ('C'est le bon') built on Aug 13 2009 12:49:06
    Writing library                  : libebml v0.7.7 + libmatroska v0.8.1
    
    Video
    ID                               : 1
    Format                           : AVC
    Format/Info                      : Advanced Video Codec
    Format profile                   : High@L3.0
    Format settings, CABAC           : Yes
    Format settings, ReFrames        : 4 frames
    Codec ID                         : V_MPEG4/ISO/AVC
    Duration                         : 3mn 59s
    Nominal bit rate                 : 1 999 Kbps
    Width                            : 720 pixels
    Height                           : 576 pixels
    Display aspect ratio             : 5:4
    Frame rate                       : 25.000 fps
    Standard                         : PAL
    Color space                      : YUV
    Chroma subsampling               : 4:2:0
    Bit depth                        : 8 bits
    Scan type                        : Progressive
    Bits/(Pixel*Frame)               : 0.193
    Title                            : Namkent | Take me to your heart - Michael Learn To Rock
    Writing library                  : x264 core 98 r1649 c54c47d
    Encoding settings                : cabac=1 / ref=3 / deblock=1:0:0 / analyse=0x3:0x113 / me=hex / subme=7 / psy=1 / psy_rd=1.00:0.00 / mixed_ref=1 / me_range=16 / chroma_me=1 / trellis=1 / 8x8dct=1 / cqm=0 / deadzone=21,11 / fast_pskip=1 / chroma_qp_offset=-2 / threads=3 / sliced_threads=0 / nr=0 / decimate=1 / interlaced=0 / constrained_intra=0 / bframes=3 / b_pyramid=2 / b_adapt=1 / b_bias=0 / direct=1 / weightb=1 / weightp=2 / keyint=250 / keyint_min=25 / scenecut=40 / intra_refresh=0 / rc_lookahead=40 / rc=2pass / mbtree=1 / bitrate=1999 / ratetol=1.0 / qcomp=0.60 / qpmin=10 / qpmax=51 / qpstep=4 / cplxblur=20.0 / qblur=0.5 / ip_ratio=1.40 / aq=1:1.00
    
    Audio
    ID                               : 2
    Format                           : PCM
    Codec ID                         : A_PCM/INT/LIT
    Duration                         : 3mn 59s
    Bit rate mode                    : Constant
    Channel(s)                       : 2 channels
    Sampling rate                    : 48.0 KHz
    Bit depth                        : 16 bits
    Title                            : Namkent | Take me to your heart - Michael Learn To Rock (LCMP)
    Bạn nhấn nút Thanks, sau đó nhấn F5 để lấy link nhé!


  2. #22
    HD-1080p namkent's Avatar
    Đăng ký
    31-05-09
    Bài viết
    1.281
    Thanks
    565
    Thanked
    148.841
    cR
    512

    Thumbs up Michael Learn To Rock - 25 minutes (karaoke)



    Code:
    General
    
    Format                           : Matroska
    File size                        : 79.6 MiB
    Duration                         : 4mn 25s
    Overall bit rate                 : 2 515 Kbps
    Encoded date                     : UTC 2010-12-11 09:32:15
    Writing application              : mkvmerge v2.9.8 ('C'est le bon') built on Aug 13 2009 12:49:06
    Writing library                  : libebml v0.7.7 + libmatroska v0.8.1
    
    Video
    ID                               : 1
    Format                           : AVC
    Format/Info                      : Advanced Video Codec
    Format profile                   : High@L3.0
    Format settings, CABAC           : Yes
    Format settings, ReFrames        : 4 frames
    Codec ID                         : V_MPEG4/ISO/AVC
    Duration                         : 4mn 25s
    Bit rate                         : 2 000 Kbps
    Width                            : 720 pixels
    Height                           : 576 pixels
    Display aspect ratio             : 5:4
    Frame rate                       : 25.000 fps
    Standard                         : PAL
    Color space                      : YUV
    Chroma subsampling               : 4:2:0
    Bit depth                        : 8 bits
    Scan type                        : Progressive
    Bits/(Pixel*Frame)               : 0.193
    Stream size                      : 61.8 MiB (78%)
    Title                            : Namkent | 25 minutes - Michael Learn To Rock
    Writing library                  : x264 core 98 r1649 c54c47d
    Encoding settings                : cabac=1 / ref=3 / deblock=1:0:0 / analyse=0x3:0x113 / me=hex / subme=7 / psy=1 / psy_rd=1.00:0.00 / mixed_ref=1 / me_range=16 / chroma_me=1 / trellis=1 / 8x8dct=1 / cqm=0 / deadzone=21,11 / fast_pskip=1 / chroma_qp_offset=-2 / threads=3 / sliced_threads=0 / nr=0 / decimate=1 / interlaced=0 / constrained_intra=0 / bframes=3 / b_pyramid=2 / b_adapt=1 / b_bias=0 / direct=1 / weightb=1 / weightp=2 / keyint=250 / keyint_min=25 / scenecut=40 / intra_refresh=0 / rc_lookahead=40 / rc=2pass / mbtree=1 / bitrate=2000 / ratetol=1.0 / qcomp=0.60 / qpmin=10 / qpmax=51 / qpstep=4 / cplxblur=20.0 / qblur=0.5 / ip_ratio=1.40 / aq=1:1.00
    
    Audio #1
    ID                               : 2
    Format                           : AC-3
    Format/Info                      : Audio Coding 3
    Mode extension                   : CM (complete main)
    Codec ID                         : A_AC3
    Duration                         : 4mn 25s
    Bit rate mode                    : Constant
    Bit rate                         : 256 Kbps
    Channel(s)                       : 2 channels
    Channel positions                : Front: L R
    Sampling rate                    : 48.0 KHz
    Bit depth                        : 16 bits
    Stream size                      : 8.10 MiB (10%)
    Title                            : Namkent | 25 minutes - Michael Learn To Rock (Beat)
    
    Audio #2
    ID                               : 3
    Format                           : AC-3
    Format/Info                      : Audio Coding 3
    Mode extension                   : CM (complete main)
    Codec ID                         : A_AC3
    Duration                         : 4mn 25s
    Bit rate mode                    : Constant
    Bit rate                         : 256 Kbps
    Channel(s)                       : 2 channels
    Channel positions                : Front: L R
    Sampling rate                    : 48.0 KHz
    Bit depth                        : 16 bits
    Stream size                      : 8.10 MiB (10%)
    Title                            : Namkent | 25 minutes - Michael Learn To Rock
    Bạn nhấn nút Thanks, sau đó nhấn F5 để lấy link nhé!


  3. #23
    Digital-2k Moderator
    boykutehp90's Avatar
    Đăng ký
    30-03-10
    Bài viết
    1.747
    Thanks
    533
    Thanked
    60.812
    cR
    1.441

    Mặc định Ðề: Michael Learn To Rock Music Video Collection (HD, DVD, DVDrip, Karaoke,...)

    Hix! Nhưng mà max 400MB thế này sao mà chuyển qua MF (MF max 200MB) được, ai chơi host DuckLoad thì để leech 1 thể nào? Host này không thua MF
    Thắng Nguyễn
    ĐT: 0984.927.348
    Facebook: facebook.com/boyvideos
    Blog: boy-videos.blogspot.com

  4. #24
    HD-1080p namkent's Avatar
    Đăng ký
    31-05-09
    Bài viết
    1.281
    Thanks
    565
    Thanked
    148.841
    cR
    512

    Mặc định Ðề: Michael Learn To Rock Music Video Collection (HD, DVD, DVDrip, Karaoke,...)

    Trích Nguyên văn bởi boykutehp90 Xem bài viết
    Hix! Nhưng mà max 400MB thế này sao mà chuyển qua MF (MF max 200MB) được, ai chơi host DuckLoad thì để leech 1 thể nào? Host này không thua MF
    Mấy cái này vào mấy cái host leech tí là xong mà
    Cần gì phải leech hẳn về host làm gì, chỉ ngán mấy cái link kiểu dạng như vip-file.net toàn bài chất lượng mà nó ko cho download free

  5. #25
    Digital-2k Moderator
    boykutehp90's Avatar
    Đăng ký
    30-03-10
    Bài viết
    1.747
    Thanks
    533
    Thanked
    60.812
    cR
    1.441

    Mặc định Ðề: Michael Learn To Rock Music Video Collection (HD, DVD, DVDrip, Karaoke,...)

    Cậu thích bài nào bên vip-files? đưa link đây tớ lấy link direct chochỉ sợ nhiều quá mà không dám download
    Thắng Nguyễn
    ĐT: 0984.927.348
    Facebook: facebook.com/boyvideos
    Blog: boy-videos.blogspot.com

  6. #26
    HD-1080p ahxdtngh's Avatar
    Đăng ký
    12-03-09
    Bài viết
    1.310
    Thanks
    268
    Thanked
    1.157
    cR
    453

    Mặc định Ðề: Michael Learn To Rock Music Video Collection (HD, DVD, DVDrip, Karaoke,...)

    Ôi toàn các bác tay to thế này
    Ford luôn là một tình yêu lớn của tôi
    Hoàng Huy - Ford Giải Phóng - 0907694789 - http://fordhuyhoang.com

  7. #27
    HD-upscale manhhai2609's Avatar
    Đăng ký
    09-12-09
    Bài viết
    18
    Thanks
    116
    Thanked
    5
    cR
    44

    Mặc định Ðề: Michael Learn To Rock Music Video Collection (HD, DVD, DVDrip, Karaoke,...)

    like mạnh nào bà con, bác chủ thớt cứ phang gốc hết đi nhá..

  8. #28
    HD-upscale manhhai2609's Avatar
    Đăng ký
    09-12-09
    Bài viết
    18
    Thanks
    116
    Thanked
    5
    cR
    44

    Mặc định Ðề: Michael Learn To Rock Music Video Collection (HD, DVD, DVDrip, Karaoke,...)

    bác nào leech hộ cái, HF khó down lắm...waiting...

  9. #29
    Digital-2k hoabantrang's Avatar
    Đăng ký
    11-04-10
    Bài viết
    2.007
    Thanks
    1.168
    Thanked
    3.174
    cR
    402

    Mặc định Ðề: Michael Learn To Rock Music Video Collection (HD, DVD, DVDrip, Karaoke,...)

    Hay quá ! Mình rất thích MLTR.
    Up đánh dấu cái, hôm nào lấy máy về kéo sau.
    Thanks chủ topic nhiều nha !

  10. #30
    HD-upscale manhhai2609's Avatar
    Đăng ký
    09-12-09
    Bài viết
    18
    Thanks
    116
    Thanked
    5
    cR
    44

    Mặc định Ðề: Michael Learn To Rock Music Video Collection (HD, DVD, DVDrip, Karaoke,...)

    vẫn chưa thấy bài nào mới , lại đợi vậy

Trang 3/10 Đầu tiênĐầu tiên 1 2 3 4 5 ... Cuối cùngCuối cùng

Tags for this Thread

Bookmarks

Quyền Sử Dụng Ở Diễn Ðàn

  • Bạn không được phép viết chủ đề mới
  • Bạn không được phép viết trả lời
  • Bạn không được phép gởi đính kèm
  • Bạn không được phép chỉnh sửa bài viết
  •  
$ads2ben
Lên Trên! Xuống Dưới!