Trang 1/28 1 2 3 11 ... Cuối cùngCuối cùng
Kết quả từ 1 tới 10 trên 271
  1. #1
    Digital-2k hoaitrung's Avatar
    Đăng ký
    13-12-09
    Bài viết
    2.430
    Thanks
    1.818
    Thanked
    514.016
    cR
    2.491

    Mặc định [1 Link] Bộ Sưu Tập Phim Châu Tinh Trì 720p

    Châu Tinh Trì - Stephen Chow Sing Chi


    Sinh ngày 22 tháng 6 năm 1962

    Là một đạo diễn và diễn viên của rất nhiều bộ phim Hồng Kông ăn khách. Anh được coi là diễn viên hài xuất sắc nhất hiện nay của điện ảnh Hồng Kông với biệt danh Vua hài (lấy từ tên một bộ phim của Châu. Hai bộ phim gần đây nhất của Châu Tinh Trì là Đội bóng Thiếu Lâm và Tuyệt đỉnh công phu không chỉ gây tiếng vang ở Hồng Kông mà còn được yêu thích tại nhiều nước, bộ phim Tuyệt đỉnh công phu hiện đang giữ kỉ lục về doanh thu của điện ảnh Hồng Kông.

    Châu Tinh Trì sinh năm 1962 tại Hồng Kông. Khi còn nhỏ, Châu rất thích Kung Fu nhưng phải học môn võ này qua truyền hình vì cha mẹ anh không đủ tiền cho con theo học các lớp chính quy. Sau đó thì anh theo học Vĩnh Xuân Quyền và trở thành một người hâm mộ diễn viên Lý Tiểu Long. Cho đến tận ngày nay anh vẫn giữ niềm đam mê này và những bộ phim của Châu Tinh Trì thường có những cảnh gợi đến những tác phẩm Lý Tiểu Long tham gia diễn xuất.


    Châu Tinh Trì tốt nghiệp lớp diễn viên của hãng TVB (thuộc tập đoàn Thiệu Thị) năm 1983 và bắt đầu tham gia vào ngành công nghiệp giải trí với vai trò người dẫn chương trình cho tiết mục thiếu nhi 430 Shuttle của đài TVB. Trong hơn 5 năm, anh cũng tham gia vào một số phim truyền hình của TVB nhưng không có vai diễn nào nổi bật và Chu vẫn chỉ là một diễn viên ít được chú ý.


    Vai diễn bước ngoặt cho sự nghiệp của Châu Tinh Trì và cũng định hình cho phong cách hài của anh là vai A Tinh trong bộ phim ăn khách Đổ thánh (Thánh bài) sản xuất năm 1990. Các vai diễn sau đó của Chu được xây dựng từ thành công của Đổ thánh, anh dần dần hoàn thiện những vai hài của mình, đó thường là những nhân vật ban đầu có vẻ tầm thường nhưng sau đó lại đánh bại được tất cả đối thủ, hoặc lại là người tự cao tự đại để rồi sau đó bị làm nhục trước khi quay trở lại hạ gục những kẻ xấu. Những vai diễn đáng chú ý theo môtíp này của Chu là trong các phim Học trường Uy Long năm 1991, Quốc sản 007 năm 1994 và Thần ăn năm 1996. Đôi khi những bộ phim của Châu Tinh Trì cũng lấy bối cảnh lịch sử làm nền như bộ phim Đường Bá Hổ điểm Thu Hương sản xuất năm 1993 với sự tham gia diễn xuất của Củng Lợi.

    Tuy nhiên đôi khi Châu Tinh Trì cũng có những vai diễn thoát khỏi môtíp hài quen thuộc của mình, một ví dụ điển hình là vai Tôn Ngộ Không trong bộ phim ăn khách Tân Tây du kí công chiếu năm 1994, trong bộ phim này Chu đã thể hiện những cảnh diễn nội tâm của nhân vật rất tốt và anh đã được trao giải Diễn viên nam xuất sắc nhất của Hội phê bình điện ảnh Hồng Kông cho vai diễn này.

    Xem thêm : Châu Tinh Trì – Wikipedia tiếng Việt



    Xin chân thành cám ơn các tác giả của những file Audio và phụ đề.

    Audio USLT và SUB Việt đã Mux sẵn hết trong File MKV




    Danh Sách Phim :

    Hoàng Tử Bánh Trứng (SUB Việt)
    The.Lucky.Guy.1998.720p.HDTV.x264.2Audio-HDCTV

    Tế Công ( SUB Việt)

    The Mad Monk 1993 HDTV 720p AC3 x264-CHDTV

    Đội Bóng Thiếu Lâm (SUB Việt)
    Shaolin.Soccer.2001.720p.BluRay.DTS.x264-EPiK

    Tuyệt Đỉnh Kung Fu (SUB Việt)
    Kung Fu Hustle 2004 720p BluRay DTS x264-ESiR

    Siêu Khuyển Thần Thông (SUB Việt)
    CJ7 2008 720p BluRay DTS x264-ESiR

    Tân Tây Du Kí 1 (USLT)
    A Chinese Odyssey Part I Pandoras Box 1994 720p BluRay DD5.1 x264-CtrlHD

    Tân Tây Du Kí 2 (USLT)

    A.Chinese.Odyssey.Part.Two.Cinderella.1994.720p.Bl uRay.AC3.2Audio.x264-CtrlHD

    Đường Bá Hổ và Điểm Thu Hương (USLT)

    Flirting Scholar 1993 HDTV 720p AC3 x264-cGz

    Đại Nội Mật Thám (USLT)

    Forbidden City Cop 1996 BluRay 720p AC3 2Audio x264-CHD

    Thần Bài 2 (USLT)

    God of Gambler's II 1991 720p HDTV x264-NGB

    Thần bài 3 (USLT)

    God of Gamblers III Back to Shanghai 1991 720p HDTV x264-NGB

    Quan Xẩm Lốc Cốc (USLT)

    Hail the Judge 1994 720p HDTV x264 2Audio-HDCTV

    Trạng Nguyên Tô Khất Nhi (USLT)

    King of Beggars 1992 720p BluRay x264-WiKi

    Long Tích Truyền Nhân (Vua Bi Da -USLT)

    Legend Of The Dragon (1990) 720p Blu-ray DD5.1 x264-WiKi

    Vua Phá Hoại (USLT)

    Love on Delivery 1994 720p HDTV x264 2Audio-HDCTV

    Tân Lộc Đỉnh Ký (USLT)

    Royal Tramp 1992 BluRay 720p AC3 2Audio x264-CHD

    Tân Lộc Đỉnh Ký 2 (USLT)

    Royal Tramp 2 (1992) BluRay 720p AC3 2Audio x264 - CHD

    Người Đàn Ông 60 Triệu Đô (USLT)

    Sixty Million Dollar Man 1995 BluRay 720p AC3 2Audio x264-CHD

    Thần Ăn - Vua Đầu Bếp ( USLT)

    The God of Cookery (1996) 720p HDTV DD5.1 x264-HDCTV



    Kho Phim Chuyên Đề Võ Thuật, Kiếm Hiệp... - Cập Nhật Liên Tục

    Bộ Sưu Tập Phim Các Ngôi Sao Châu Á

    1 Link] Bộ Sưu Tập Phim Chung tử Đơn 720p

    [ 1 Link ] Bộ Sưu Tập Film Thành Long 720p

    [1 Link] Bộ Sưu Tập Phim Lý Tiểu Long 720p


    [1 Link] Bộ Sưu Tập Lý Liên Kiệt 720p


    [1 Link] Bộ Sưu Tập Phim Châu Tinh Trì 720p


    ]http://www.hdvietnam.com/diendan/33-...phat-720p.html

    http://www.hdvietnam.com/diendan/33-...u-duc-hoa.html

    http://www.hdvietnam.com/diendan/77-...phen-chow.html (mHD)









    .


    -----------------------------------------------------------------
    Chỉnh sửa nội dung bởi: hoaitrung, 11-11-2013 lúc 09:22
    KhoHD Phim Khoa Học Tài Liệu Sub Việt
    Các bạn vui lòng không up các file KhoHD của mình lên Fshare nha. Xin cảm ơn!

  2. 734 người đã cảm ơn hoaitrung


  3. #2
    Digital-2k hoaitrung's Avatar
    Đăng ký
    13-12-09
    Bài viết
    2.430
    Thanks
    1.818
    Thanked
    514.016
    cR
    2.491

    Mặc định Ðề: [1 Link] Bộ Sưu Tập Phim Châu Tinh Trì 720p

    The Mad Monk 1993 HDTV 720p AC3 x264-CHDTV

    Tế Công ( SUB Việt)






    Code:
    General
    Unique ID                        : 204001851379181005773773684882089280574 (0x997953D254F6A86F91D07B4DEC19843E)
    Complete name                    : The.Mad.Monk.1993.HDTV.720p.AC3.x264-CHDTV.mkv
    Format                           : Matroska
    Format version                   : Version 2
    File size                        : 4.36 GiB
    Duration                         : 1h 23mn
    Overall bit rate                 : 7 502 Kbps
    Encoded date                     : UTC 2011-07-13 01:59:33
    Writing application              : mkvmerge v4.8.0 ('I Got The...') built on May 24 2011 03:12:58
    Writing library                  : libebml v1.2.0 + libmatroska v1.1.0
    
    Video
    ID                               : 1
    Format                           : AVC
    Format/Info                      : Advanced Video Codec
    Format profile                   : High@L4.1
    Format settings, CABAC           : Yes
    Format settings, ReFrames        : 5 frames
    Muxing mode                      : Header stripping
    Codec ID                         : V_MPEG4/ISO/AVC
    Duration                         : 1h 23mn
    Bit rate                         : 7 116 Kbps
    Width                            : 1 280 pixels
    Height                           : 688 pixels
    Display aspect ratio             : 1.860
    Frame rate                       : 25.000 fps
    Color space                      : YUV
    Chroma subsampling               : 4:2:0
    Bit depth                        : 8 bits
    Scan type                        : Progressive
    Bits/(Pixel*Frame)               : 0.323
    Stream size                      : 4.05 GiB (93%)
    Writing library                  : x264 core 98 r1643+2 cb42bbb
    Encoding settings                : cabac=1 / ref=5 / deblock=1:-3:-3 / analyse=0x3:0x113 / me=umh / subme=9 / psy=1 / fade_compensate=0.00 / psy_rd=1.15:0.30 / mixed_ref=1 / me_range=26 / chroma_me=1 / trellis=2 / 8x8dct=1 / cqm=0 / deadzone=21,11 / fast_pskip=0 / chroma_qp_offset=-3 / threads=6 / sliced_threads=0 / nr=0 / decimate=1 / interlaced=0 / constrained_intra=0 / bframes=3 / b_pyramid=2 / b_adapt=2 / b_bias=0 / direct=3 / weightb=1 / weightp=2 / keyint=250 / keyint_min=25 / scenecut=40 / intra_refresh=0 / rc_lookahead=50 / rc=2pass / mbtree=1 / bitrate=7116 / ratetol=2.0 / qcomp=0.70 / qpmin=10 / qpmax=51 / qpstep=4 / cplxblur=20.0 / qblur=0.5 / vbv_maxrate=50000 / vbv_bufsize=50000 / ip_ratio=1.40 / aq=1:1.00 / nal_hrd=none
    Language                         : Chinese
    
    Audio
    ID                               : 2
    Format                           : AC-3
    Format/Info                      : Audio Coding 3
    Mode extension                   : CM (complete main)
    Muxing mode                      : Header stripping
    Codec ID                         : A_AC3
    Duration                         : 1h 23mn
    Bit rate mode                    : Constant
    Bit rate                         : 384 Kbps
    Channel(s)                       : 6 channels
    Channel positions                : Front: L C R, Side: L R, LFE
    Sampling rate                    : 48.0 KHz
    Bit depth                        : 16 bits
    Compression mode                 : Lossy
    Delay relative to video          : 3ms
    Stream size                      : 229 MiB (5%)
    Title                            : 粤  语
    Language                         : Chinese
    
    Text
    ID                               : 3
    Format                           : UTF-8
    Codec ID                         : S_TEXT/UTF8
    Codec ID/Info                    : UTF-8 Plain Text
    Language                         : Vietnamese
    Đạo diễn: Johnnie To Kei Fung
    Diễn viên: Châu Tinh Trì, Ngô Mẫn Đạt, Maggie Cheung, Anthony Wong
    Nhà sản xuất: Cosmopolitan Film Productions Co.
    Thể loại: Hài hước
    Độ dài: 128 phút
    Quốc gia: Hong Kong
    Năm sản xuất: 1993

    Tế Công (Châu Tinh Trì), cá cược với các vị tiên khác trên trời rằng sẽ cứu vãn được cuộc đời của một kỹ nữ (Maggie Cheung) và một tên ăn mày (Anthony Wong), và để hoàn thành việc đó, Tế Công phải đích thân xuống hạ giới.

    Xem thêm : Phim Tế Công | Phim te cong | The Mad Monk | Xem Phim Online | Trailer, Hinh Anh, Thong Tin Phim


    1 Link = 4.36 GB

    Bạn nhấn nút Thanks, sau đó nhấn F5 để lấy link nhé!






    Chỉnh sửa nội dung bởi: hoaitrung, 03-10-2011 lúc 21:33
    KhoHD Phim Khoa Học Tài Liệu Sub Việt
    Các bạn vui lòng không up các file KhoHD của mình lên Fshare nha. Xin cảm ơn!

  4. 1.160 người đã cảm ơn hoaitrung


  5. #3
    Digital-2k hoaitrung's Avatar
    Đăng ký
    13-12-09
    Bài viết
    2.430
    Thanks
    1.818
    Thanked
    514.016
    cR
    2.491

    Mặc định Ðề: [1 Link] Bộ Sưu Tập Phim Châu Tinh Trì 720p

    Shaolin.Soccer.2001.720p.BluRay.DTS.x264-EPiK

    Đội Bóng Thiếu Lâm (SUB Việt)



    Code:
    General
    Unique ID                        : 182387880075796293467141459764559543007 (0x8936A0C2D8D15464A1D40D8CC520FADF)
    Complete name                    : Shaolin.Soccer.2001.720p.BluRay.DTS.x264-EPiK.mkv
    Format                           : Matroska
    Format version                   : Version 2
    File size                        : 6.55 GiB
    Duration                         : 1h 52mn
    Overall bit rate                 : 8 339 Kbps
    Encoded date                     : UTC 2011-07-13 01:15:48
    Writing application              : mkvmerge v4.8.0 ('I Got The...') built on May 24 2011 03:12:58
    Writing library                  : libebml v1.2.0 + libmatroska v1.1.0
    
    Video
    ID                               : 1
    Format                           : AVC
    Format/Info                      : Advanced Video Codec
    Format profile                   : High@L4.1
    Format settings, CABAC           : Yes
    Format settings, ReFrames        : 9 frames
    Muxing mode                      : Header stripping
    Codec ID                         : V_MPEG4/ISO/AVC
    Duration                         : 1h 52mn
    Bit rate                         : 7 573 Kbps
    Width                            : 1 280 pixels
    Height                           : 720 pixels
    Display aspect ratio             : 16:9
    Frame rate                       : 23.976 fps
    Color space                      : YUV
    Chroma subsampling               : 4:2:0
    Bit depth                        : 8 bits
    Scan type                        : Progressive
    Bits/(Pixel*Frame)               : 0.343
    Stream size                      : 5.82 GiB (89%)
    Title                            : Shaolin Soccer (2001)
    Writing library                  : x264 core 76 r1271M 496d79d
    Encoding settings                : cabac=1 / ref=9 / deblock=1:-3:-3 / analyse=0x3:0x113 / me=umh / subme=9 / psy=1 / psy_rd=0.9:0.0 / mixed_ref=1 / me_range=24 / chroma_me=1 / trellis=2 / 8x8dct=1 / cqm=0 / deadzone=21,11 / chroma_qp_offset=-2 / threads=6 / nr=0 / decimate=1 / mbaff=0 / bframes=16 / b_pyramid=0 / b_adapt=1 / b_bias=0 / direct=3 / wpredb=1 / keyint=250 / keyint_min=25 / scenecut=40 / rc_lookahead=70 / rc=2pass / mbtree=1 / bitrate=7573 / ratetol=1.0 / qcomp=0.60 / qpmin=10 / qpmax=51 / qpstep=4 / cplxblur=20.0 / qblur=0.5 / ip_ratio=1.40 / aq=1:0.80
    Language                         : English
    
    Audio
    ID                               : 2
    Format                           : DTS
    Format/Info                      : Digital Theater Systems
    Muxing mode                      : Header stripping
    Codec ID                         : A_DTS
    Duration                         : 1h 52mn
    Bit rate mode                    : Constant
    Bit rate                         : 755 Kbps
    Channel(s)                       : 6 channels
    Channel positions                : Front: L C R, Side: L R, LFE
    Sampling rate                    : 48.0 KHz
    Bit depth                        : 24 bits
    Compression mode                 : Lossy
    Stream size                      : 606 MiB (9%)
    Language                         : Chinese
    
    Text
    ID                               : 3
    Format                           : UTF-8
    Codec ID                         : S_TEXT/UTF8
    Codec ID/Info                    : UTF-8 Plain Text
    Language                         : Vietnamese


    1 Link = 6.54 GB
    Bạn nhấn nút Thanks, sau đó nhấn F5 để lấy link nhé!
    Chỉnh sửa nội dung bởi: hoaitrung, 28-08-2011 lúc 09:29
    KhoHD Phim Khoa Học Tài Liệu Sub Việt
    Các bạn vui lòng không up các file KhoHD của mình lên Fshare nha. Xin cảm ơn!

  6. 868 người đã cảm ơn hoaitrung


  7. #4
    Digital-2k hoaitrung's Avatar
    Đăng ký
    13-12-09
    Bài viết
    2.430
    Thanks
    1.818
    Thanked
    514.016
    cR
    2.491

    Mặc định Ðề: [1 Link] Bộ Sưu Tập Phim Châu Tinh Trì 720p

    Kung.Fu.Hustle.2004.720p.BluRay.DTS.x264-ESiR

    Tuyệt Đỉnh Kung Fu (SUB Việt)



    Code:
    General
    Unique ID                        : 235771558038535363246808614734724748650 (0xB15FF34B31C165DC93E1D4121562556A)
    Complete name                    : Kung.Fu.Hustle.2004.720p.BluRay.DTS.x264-ESiR.mkv
    Format                           : Matroska
    Format version                   : Version 2
    File size                        : 4.37 GiB
    Duration                         : 1h 39mn
    Overall bit rate                 : 6 289 Kbps
    Movie name                       : Kung.Fu.Hustle.2004.720p.BluRay.DTS.x264-ESiR
    Encoded date                     : UTC 2011-07-13 02:37:46
    Writing application              : mkvmerge v4.8.0 ('I Got The...') built on May 24 2011 03:12:58
    Writing library                  : libebml v1.2.0 + libmatroska v1.1.0
    Attachment                       : Yes / Yes / Yes
    
    Video
    ID                               : 1
    Format                           : AVC
    Format/Info                      : Advanced Video Codec
    Format profile                   : High@L5.1
    Format settings, CABAC           : Yes
    Format settings, ReFrames        : 9 frames
    Muxing mode                      : Header stripping
    Codec ID                         : V_MPEG4/ISO/AVC
    Duration                         : 1h 39mn
    Bit rate                         : 5 535 Kbps
    Width                            : 1 280 pixels
    Height                           : 536 pixels
    Display aspect ratio             : 2.40:1
    Frame rate                       : 23.976 fps
    Color space                      : YUV
    Chroma subsampling               : 4:2:0
    Bit depth                        : 8 bits
    Scan type                        : Progressive
    Bits/(Pixel*Frame)               : 0.336
    Stream size                      : 3.76 GiB (86%)
    Title                            : Kung Fu Hustle
    Writing library                  : x264 core 54 svn-635M
    Encoding settings                : cabac=1 / ref=6 / deblock=1:-1:-1 / analyse=0x3:0x133 / me=hex / subme=7 / brdo=1 / mixed_ref=1 / me_range=16 / chroma_me=1 / trellis=1 / 8x8dct=1 / cqm=2 / deadzone=21,11 / chroma_qp_offset=0 / threads=2 / nr=0 / decimate=0 / mbaff=0 / bframes=4 / b_pyramid=1 / b_adapt=1 / b_bias=0 / direct=1 / wpredb=1 / bime=1 / keyint=250 / keyint_min=25 / scenecut=40(pre) / rc=2pass / bitrate=5535 / ratetol=1.0 / rceq='blurCplx^(1-qComp)' / qcomp=0.60 / qpmin=10 / qpmax=51 / qpstep=4 / cplxblur=20.0 / qblur=0.5 / ip_ratio=1.40 / pb_ratio=1.30 / aq=1:0.5:18.0
    Language                         : English
    
    Audio
    ID                               : 2
    Format                           : DTS
    Format/Info                      : Digital Theater Systems
    Muxing mode                      : Header stripping
    Codec ID                         : A_DTS
    Duration                         : 1h 39mn
    Bit rate mode                    : Constant
    Bit rate                         : 755 Kbps
    Channel(s)                       : 6 channels
    Channel positions                : Front: L C R, Side: L R, LFE
    Sampling rate                    : 48.0 KHz
    Bit depth                        : 16 bits
    Compression mode                 : Lossy
    Stream size                      : 537 MiB (12%)
    Title                            : DTS 5.1
    Language                         : Chinese
    
    Text
    ID                               : 3
    Format                           : UTF-8
    Codec ID                         : S_TEXT/UTF8
    Codec ID/Info                    : UTF-8 Plain Text
    Language                         : Vietnamese
    Đạo diễn: Stephen Chow Sing Chi
    Diễn viên: Châu Tinh Trì, Yuen Wah, Leung Siu Lung, Dong Zhi Hua, Chiu Chi Ling
    Nhà sản xuất: Sony Pictures Classics
    Thể loại: Hành động, Hài hước, Võ Thuật
    Độ dài: 99 phút
    Quốc gia: Hong Kong
    Năm sản xuất: 2005

    Một film võ thuật hài hước của Châu Tinh Trì lấy bối cảnh của thập kỷ 40s. Trong xã hội hỗn loạn ở Trung Quốc những năm 1940, các băng nhóm thực sự có ảnh hưởng.Đáng sợ nhất phải kể đến đảng Lưỡi Rìu mà đứng đầu là đại ca Sum (Trần Quách Quan). Hắn vốn là kẻ say mê chém giết lại cực kỳ nhẫn tâm. Băng nhóm của Sum đi đến đâu nỗi kinh hoàng theo tới đó. Người dân thành phố thì lo lắng, đám cảnh sát thì sợ sệt...
    Xem thêm : Phim Tuyệt Đỉnh Kung-fu | Phim tuyet dinh kung-fu | Kung Fu Hustle | Xem Phim Online | Trailer, Hinh Anh, Thong Tin Phim


    1 Link = 4.36 GB
    Bạn nhấn nút Thanks, sau đó nhấn F5 để lấy link nhé!



    Chỉnh sửa nội dung bởi: hoaitrung, 28-08-2011 lúc 09:29
    KhoHD Phim Khoa Học Tài Liệu Sub Việt
    Các bạn vui lòng không up các file KhoHD của mình lên Fshare nha. Xin cảm ơn!

  8. 752 người đã cảm ơn hoaitrung


  9. #5
    Digital-2k hoaitrung's Avatar
    Đăng ký
    13-12-09
    Bài viết
    2.430
    Thanks
    1.818
    Thanked
    514.016
    cR
    2.491

    Mặc định Ðề: [1 Link] Bộ Sưu Tập Phim Châu Tinh Trì 720p




    CJ7.2008.720p.BluRay.DTS.x264-ESiR

    Siêu Khuyển Thần Thông (SUB Việt)



    Code:
    General
    Unique ID                        : 174237615751479875502498545800307792852 (0x8314F1B490702FD49DCEFE8C5593DBD4)
    Complete name                    : CJ7.2008.720p.BluRay.DTS.x264-ESiR.mkv
    Format                           : Matroska
    Format version                   : Version 2
    File size                        : 4.36 GiB
    Duration                         : 1h 28mn
    Overall bit rate                 : 7 070 Kbps
    Movie name                       : CJ7 (2008)
    Encoded date                     : UTC 2011-07-13 01:39:03
    Writing application              : mkvmerge v4.8.0 ('I Got The...') built on May 24 2011 03:12:58
    Writing library                  : libebml v1.2.0 + libmatroska v1.1.0
    Attachment                       : Yes / Yes / Yes
    
    Video
    ID                               : 1
    Format                           : AVC
    Format/Info                      : Advanced Video Codec
    Format profile                   : High@L4.1
    Format settings, CABAC           : Yes
    Format settings, ReFrames        : 6 frames
    Muxing mode                      : Header stripping
    Codec ID                         : V_MPEG4/ISO/AVC
    Duration                         : 1h 28mn
    Bit rate                         : 5 560 Kbps
    Width                            : 1 280 pixels
    Height                           : 534 pixels
    Display aspect ratio             : 2.40:1
    Frame rate                       : 23.976 fps
    Color space                      : YUV
    Chroma subsampling               : 4:2:0
    Bit depth                        : 8 bits
    Scan type                        : Progressive
    Bits/(Pixel*Frame)               : 0.339
    Stream size                      : 3.34 GiB (77%)
    Writing library                  : x264 core 60 r920M 8c8acae
    Encoding settings                : cabac=1 / ref=6 / deblock=1:-3:-3 / analyse=0x3:0x133 / me=umh / subme=7 / psy_rd=0.900000 / brdo=1 / mixed_ref=1 / me_range=16 / chroma_me=1 / trellis=0 / 8x8dct=1 / cqm=2 / deadzone=12,10 / chroma_qp_offset=0 / threads=3 / nr=0 / decimate=1 / mbaff=0 / bframes=3 / b_pyramid=1 / b_adapt=1 / b_bias=0 / direct=3 / wpredb=1 / bime=1 / keyint=250 / keyint_min=25 / scenecut=40(pre) / rc=2pass / bitrate=5560 / ratetol=1.0 / rceq='blurCplx^(1-qComp)' / qcomp=1.00 / qpmin=10 / qpmax=51 / qpstep=4 / cplxblur=20.0 / qblur=0.5 / ip_ratio=1.40 / pb_ratio=1.30 / aq=2:0.70
    Language                         : Chinese
    
    Audio
    ID                               : 2
    Format                           : DTS
    Format/Info                      : Digital Theater Systems
    Muxing mode                      : Header stripping
    Codec ID                         : A_DTS
    Duration                         : 1h 28mn
    Bit rate mode                    : Constant
    Bit rate                         : 1 510 Kbps
    Channel(s)                       : 6 channels
    Channel positions                : Front: L C R, Side: L R, LFE
    Sampling rate                    : 48.0 KHz
    Bit depth                        : 16 bits
    Compression mode                 : Lossy
    Stream size                      : 954 MiB (21%)
    Language                         : Chinese
    
    Text
    ID                               : 3
    Format                           : UTF-8
    Codec ID                         : S_TEXT/UTF8
    Codec ID/Info                    : UTF-8 Plain Text
    Language                         : Vietnamese
    Đạo diễn: Châu Tinh Trì
    Diễn viên: Châu Tinh Trì, Kitty Zhang, Xu Jiao, Lam Chi Chung
    Nhà sản xuất: China Film Group Corporation
    Thể loại: Hài hước, Viễn tưởng, Tình Cảm
    Độ dài: 86 phút
    Quốc gia: Hong Kong
    Năm sản xuất: 2008

    Trong phim, Châu Tinh Trì vào vai cha của cậu bé Dicky Chow (Châu Tiểu Địch) - một công nhân xây dựng vất vả kiếm sống để con trai có thể theo học trường điểm. Nhưng Tiểu Địch luôn bị một số bạn bè khác bắt nạt chỉ về cậu bé quá nghèo, không có quần áo đẹp, không có giày tập thể thao cho ra hồn

    Một ngày kia, cha Tiểu Địch mang về cho con thứ đồ chơi lượm được ở bãi rác mà thực ra là một sinh vật ngoài Trái đất rất đáng yêu. Đôi bạn nhanh chóng làm thân và từ đây không ít chuyện cười ra nước mắt xảy ra…

    Xem thêm : Phim Siêu Khuyển Thần Thông | Phim sieu khuyen than thong | CJ7 | Xem Phim Online | Trailer, Hinh Anh, Thong Tin Phim


    1 Link = 4.36 GB
    Bạn nhấn nút Thanks, sau đó nhấn F5 để lấy link nhé!


    Chỉnh sửa nội dung bởi: hoaitrung, 28-08-2011 lúc 09:30
    KhoHD Phim Khoa Học Tài Liệu Sub Việt
    Các bạn vui lòng không up các file KhoHD của mình lên Fshare nha. Xin cảm ơn!

  10. 487 người đã cảm ơn hoaitrung


  11. #6
    Digital-2k hoaitrung's Avatar
    Đăng ký
    13-12-09
    Bài viết
    2.430
    Thanks
    1.818
    Thanked
    514.016
    cR
    2.491

    Mặc định Ðề: [1 Link] Bộ Sưu Tập Phim Châu Tinh Trì 720p

    A Chinese Odyssey Part I Pandoras Box 1994 720p BluRay DD5.1 x264-CtrlHD

    Tân Tây Du Kí 1 (USLT)



    Code:
    General
    UniqueID/String                  : 230297447647759046435071470499424820781 (0xAD41ACD0581026848E96385440CEDE2D)
    CompleteName                     : A Chinese Odyssey Part I Pandoras Box 1994 720p BluRay DD5.1 x264-CtrlHD.mkv
    Format                           : Matroska
    Format_Version                   : Version 2
    FileSize/String                  : 4.99 GiB
    Duration/String                  : 1h 28mn
    OverallBitRate/String            : 8 071 Kbps
    Encoded_Date                     : UTC 2010-07-01 05:31:44
    Encoded_Application              : mkvmerge v4.0.0 ('The Stars were mine') built on Jun  6 2010 16:18:42
    Encoded_Library/String           : libebml v1.0.0 + libmatroska v1.0.0
    
    Video
    ID/String                        : 1
    Format                           : AVC
    Format/Info                      : Advanced Video Codec
    Format_Profile                   : High@L4.1
    Format_Settings_CABAC/String     : Yes
    Format_Settings_RefFrames/String : 8 frames
    CodecID                          : V_MPEG4/ISO/AVC
    Duration/String                  : 1h 28mn
    BitRate/String                   : 6 500 Kbps
    Width/String                     : 1 274 pixels
    Height/String                    : 720 pixels
    DisplayAspectRatio/String        : 16:9
    FrameRate/String                 : 24.000 fps
    ColorSpace                       : YUV
    ChromaSubsampling                : 4:2:0
    BitDepth/String                  : 8 bits
    ScanType/String                  : Progressive
    Bits-(Pixel*Frame)               : 0.295
    StreamSize/String                : 3.90 GiB (78%)
    Encoded_Library/String           : x264 core 98 r1629 2e81ce1
    Encoded_Library_Settings         : cabac=1 / ref=8 / deblock=1:-3:-3 / analyse=0x3:0x133 / me=umh / subme=10 / psy=1 / psy_rd=0.80:0.00 / mixed_ref=1 / me_range=32 / chroma_me=1 / trellis=2 / 8x8dct=1 / cqm=0 / deadzone=21,11 / fast_pskip=0 / chroma_qp_offset=-2 / threads=12 / sliced_threads=0 / nr=0 / decimate=0 / interlaced=0 / constrained_intra=0 / bframes=6 / b_pyramid=2 / b_adapt=2 / b_bias=0 / direct=3 / weightb=1 / weightp=2 / keyint=250 / keyint_min=25 / scenecut=40 / intra_refresh=0 / rc_lookahead=40 / rc=2pass / mbtree=1 / bitrate=6500 / ratetol=1.0 / qcomp=0.60 / qpmin=10 / qpmax=51 / qpstep=4 / cplxblur=20.0 / qblur=0.5 / ip_ratio=1.40 / aq=1:0.80
    Language/String                  : Chinese
    
    Audio #1
    ID/String                        : 2
    Format                           : AC-3
    Format/Info                      : Audio Coding 3
    Format_Settings_ModeExtension    : CM (complete main)
    CodecID                          : A_AC3
    Duration/String                  : 1h 28mn
    BitRate_Mode/String              : Constant
    BitRate/String                   : 640 Kbps
    Channel(s)/String                : 6 channels
    ChannelPositions                 : Front: L C R, Side: L R, LFE
    SamplingRate/String              : 48.0 KHz
    BitDepth/String                  : 16 bits
    Compression_Mode/String          : Lossy
    StreamSize/String                : 405 MiB (8%)
    Title                            : Cantonese
    Language/String                  : Chinese
    
    Audio #2
    ID/String                        : 3
    Format                           : AC-3
    Format/Info                      : Audio Coding 3
    Format_Settings_ModeExtension    : CM (complete main)
    CodecID                          : A_AC3
    Duration/String                  : 1h 28mn
    BitRate_Mode/String              : Constant
    BitRate/String                   : 640 Kbps
    Channel(s)/String                : 6 channels
    ChannelPositions                 : Front: L C R, Side: L R, LFE
    SamplingRate/String              : 48.0 KHz
    BitDepth/String                  : 16 bits
    Compression_Mode/String          : Lossy
    StreamSize/String                : 405 MiB (8%)
    Title                            : Mandarin
    Language/String                  : Chinese
    
    Audio #3
    ID/String                        : 4
    Format                           : AC-3
    Format/Info                      : Audio Coding 3
    Format_Settings_ModeExtension    : CM (complete main)
    CodecID                          : A_AC3
    Duration/String                  : 1h 28mn
    BitRate_Mode/String              : Constant
    BitRate/String                   : 320 Kbps
    Channel(s)/String                : 2 channels
    ChannelPositions                 : Front: L R
    SamplingRate/String              : 48.0 KHz
    BitDepth/String                  : 16 bits
    Compression_Mode/String          : Lossy
    StreamSize/String                : 203 MiB (4%)
    Language/String                  : Vietnamese
    Diễn viên: Châu Tinh Trì, Ngô Mẫn Đạt, Yammie Nam, Karen Mok, Kong Yeuk
    Nhà sản xuất: Brillant Star Development
    Thể loại: Hài hước
    Độ dài: 87 phút
    Quốc gia: Hong Kong
    Năm sản xuất: 1995

    Phỏng theo bộ film nổi tiếng của Ngô Thừa Ân - Tây Du Ký, bộ film nói về Tôn Ngộ Không (Châu Tinh Trì) 500 năm sau đó bị kẹt trong hình dạng con người và tìm cách để gặp được Đường Tam Tạng, người duy nhất có thể biến Tôn Ngộ Không trở về hình dạng ban đầu của mình. Nhưng làm sao để tìm được Đường Tam Tạng khi mà ông đã chết? Câu trả lời nằm trong chiếc hộp Pandora...


    1 link = 4.98 GB
    Bạn nhấn nút Thanks, sau đó nhấn F5 để lấy link nhé!
    Chỉnh sửa nội dung bởi: hoaitrung, 28-08-2011 lúc 09:30
    KhoHD Phim Khoa Học Tài Liệu Sub Việt
    Các bạn vui lòng không up các file KhoHD của mình lên Fshare nha. Xin cảm ơn!