Trang 16/36 Đầu tiênĐầu tiên ... 6 14 15 16 17 18 26 ... Cuối cùngCuối cùng
Kết quả từ 151 tới 160 trên 357
  1. #151
    Digital-2k hoaitrung's Avatar
    Đăng ký
    13-12-09
    Bài viết
    2.424
    Thanks
    1.824
    Thanked
    517.535
    cR
    2.538

    Mặc định Re: [1 Link ] Bộ Sưu Tập Phim Khoa Học - Tài Liệu Phần 4

    Trích Nguyên văn bởi Alabama Xem bài viết
    Chừng nào có phần 5 vậy bác?
    Phần 5 sẽ là hàng độc + đầy đủ Sub Việt, 99% là chưa có trong cộng đồng dân cư mạng!


    Phần 5 post tiếp tục dưới đây luôn nha mấy bạn! Các bạn cứ xem các bài tiếp theo là thấy!
    Chỉnh sửa nội dung bởi: hoaitrung, 21-09-2012 lúc 15:36
    KhoHD Phim Khoa Học Tài Liệu Sub Việt
    Các bạn vui lòng không up các file KhoHD của mình lên Fshare nha. Xin cảm ơn!

  2. 9 người đã cảm ơn hoaitrung


  3. #152
    HD-upscale tuanvu2705's Avatar
    Đăng ký
    25-09-10
    Bài viết
    51
    Thanks
    344
    Thanked
    60
    cR
    561

    Mặc định Ðề: [1 Link ] Bộ Sưu Tập Phim Khoa Học - Tài Liệu Phần 4

    ủng hộ bác hoaitrung!
    tks bác nhiều

  4. 2 người đã cảm ơn tuanvu2705


  5. #153
    Digital-2k hoaitrung's Avatar
    Đăng ký
    13-12-09
    Bài viết
    2.424
    Thanks
    1.824
    Thanked
    517.535
    cR
    2.538

    Mặc định Deadly Jaws Cheetah 1080i HDTV AVC_BHT - Tốc Độ Kinh Hoàng Của Loài Báo Gêpa (Sub Việt)

    Deadly Jaws Cheetah 1080i HDTV AVC_BHT

    Tốc Độ Kinh Hoàng Của Loài Báo Gêpa (Sub Việt)



    Loài Báo Gêpa có thể đạt đến tốc độ đỉnh điểm 120 km/h khi săn mồi, cán mức 100 km/h chỉ trong vòng 3s xuất phát, ngang ngửa với những loại xe thể thao siêu tốc độ nhanh nhất của Thế giới. Loài Linh dương dù thua kém nhưng cũng có thể đạt đến 95 km/h. Nhưng chỉ kém về nước rút, nếu đường dài thì Báo cũng phải ngã mũ chào thua. Cũng như Usain Bolt, nhà vô địch mọi thời đại môn điền kinh 100m của Thế giới, cũng không dám mơ đến những huy chương vàng ở các cự ly 400m và cao hơn.Và tốc độ của anh ta cũng chỉ khoảng 40km/h, chỉ bằng 1/3 của loài Báo.

    Bộ phim sẽ dẫn bạn đến 1 cuộc chiến sinh tồn không hồi kết giữa Báo và Linh dương 1 cách thú vị và khoa học!









    Media Info
    Code:
    General
    Unique ID                                : 189966500036515618371766134006268685503 (0x8EEA3792E337BE4D8F530F855529ECBF)
    Complete name                            : Deadly Jaws Cheetah 1080i HDTV AVC_BHT (SubViet).mkv
    Format                                   : Matroska
    Format version                           : Version 2
    File size                                : 2.27 GiB
    Duration                                 : 43mn 56s
    Overall bit rate                         : 7 401 Kbps
    Encoded date                             : UTC 2012-09-01 09:07:56
    Writing application                      : mkvmerge v5.7.0 ('The Whirlwind') built on Jul  8 2012 20:08:51
    Writing library                          : libebml v1.2.3 + libmatroska v1.3.0
    
    Video
    ID                                       : 2
    Format                                   : AVC
    Format/Info                              : Advanced Video Codec
    Format profile                           : High@L4.0
    Format settings, CABAC                   : Yes
    Format settings, ReFrames                : 3 frames
    Muxing mode                              : Header stripping
    Codec ID                                 : V_MPEG4/ISO/AVC
    Duration                                 : 43mn 56s
    Bit rate                                 : 7 061 Kbps
    Width                                    : 1 920 pixels
    Height                                   : 1 080 pixels
    Display aspect ratio                     : 16:9
    Frame rate mode                          : Variable
    Frame rate                               : 25.000 fps
    Color space                              : YUV
    Chroma subsampling                       : 4:2:0
    Bit depth                                : 8 bits
    Scan type                                : Interlaced
    Scan order                               : Top Field First
    Bits/(Pixel*Frame)                       : 0.136
    Stream size                              : 2.17 GiB (95%)
    Default                                  : Yes
    Forced                                   : No
    Color primaries                          : BT.709-5, BT.1361, IEC 61966-2-4, SMPTE RP177
    Transfer characteristics                 : BT.709-5, BT.1361
    Matrix coefficients                      : BT.709-5, BT.1361, IEC 61966-2-4 709, SMPTE RP177
    
    Audio
    ID                                       : 1
    Format                                   : MPEG Audio
    Format version                           : Version 1
    Format profile                           : Layer 2
    Muxing mode                              : Header stripping
    Codec ID                                 : A_MPEG/L2
    Codec ID/Hint                            : MP2
    Duration                                 : 43mn 56s
    Bit rate mode                            : Constant
    Bit rate                                 : 192 Kbps
    Channel(s)                               : 2 channels
    Sampling rate                            : 48.0 KHz
    Compression mode                         : Lossy
    Delay relative to video                  : -11ms
    Stream size                              : 60.3 MiB (3%)
    Default                                  : Yes
    Forced                                   : No


    Phim kèm phụ đề Việt chuẩn
    Bạn nhấn nút Thanks, sau đó nhấn F5 để lấy link nhé!






    Loài vật nào có tốc độ di chuyển nhanh nhất ?

    Chạy nhanh nhất : Báo hoa
    Đạt vận tốc tới 96 km/h, báo Gêpa là loài vật chạy nhanh nhất trên mặt đất. Tuy nhiên, để chạy được với tốc độ đó đòi hỏi rất nhiều năng lượng, nên chúng không thể phóng được lâu.Không giống các loài săn mồi châu Phi khác, báo hoa đi săn vào ban ngày. Khi phát hiện thấy con mồi, chúng tăng tốc như một chiếc xe hơi, từ 0 km/h lên tới 96 km/h chỉ trong 3 giây. Với đôi mắt cực tinh và tốc độ chóng mặt, báo Gêpa là một kẻ săn mồi đáng sợ trong tự nhiên.
    Bay nhanh nhất : Hầu hết các loài chim đều có vận tốc bay khá nhanh, khoảng 25-45 dặm/giờ (~40-70km/h). Đặc biệt khi bổ nhào, loài chim ưng có khả năng bay với tốc độ là 200 dặm/h (~320km/h), gấp 3 lần so với báo Cheetah (!). Không chỉ vậy, đa số các loài chim đều có khả năng bay cao tới 2000m. Đặc biệt đã từng có nhà thám hiểm nhìn thấy ngỗng bay qua đỉnh Himalaya (độ cao 8000m).
    Ngoài chim ưng ra, chúng ta còn có các loài chim sau đây bay nhanh hơn báo Cheetah :
    • Chim én : có khả năng bay với vận tốc từ 99-106 dặm/h (~160-171km/h).
    • Chim đại bàng : có khả năng bay với vận tốc 81 dặm/h (~130km/h).
    • Vịt biển (Eider) : có khả năng bay với vận tốc 75 dặm/h (~120km/h).
    Trong khi đó, côn trùng bay nhanh nhất là con chuồn chuồn với vận tốc 31 dặm/h (~50km/h).
    Bơi nhanh nhất : Cá mòi ở Isla Mujeres, Mexico được coi là loài cá bơi nhanh nhất hành tinh với tốc độ hơn 120 km/giờ.

    Hàng năm, cá mòi di chuyển dọc theo bờ biển Yucatan (Mexico) và thu hút những kẻ săn mồi như cá cờ.

    Khi bị tấn công từ mọi phía, cá mòi tụ tập lại thành những ‘trái bóng’ xoay tròn để tự vệ. Chúng lợi dụng chính số lượng đông đúc để ngăn chặn được những loài động vật đang cố săn đuổi mình.

    ---------- Post added at 02:20:14 PM ---------- Previous post was at 02:19:18 PM ----------


    Wildest Explorer Viet Nam 1080i HDTV AVC_BHT

    Khám Phá Hoang Dã Việt Nam (Sub Việt)




    Mời các bạn theo chân Tiến sĩ Mike Leahy khám phá những loài vật, kí sinh trùng nguy hiểm tại Việt nam nhé!

    Media info
    Code:
       General
          Unique ID : 214326869401726796770230339288802345965 (0xA13DDA8359D522C7849EBB8FD12943ED)
          Complete name :Wildest Explorer-Viet Nam 1080i HDTV AVC_BHT (SubViet).mkv
          Format : Matroska
          Format version : Version 2
          File size : 2.46 GiB
          Duration : 47mn 7s
          Overall bit rate : 7 480 Kbps
          Encoded date : UTC 2012-09-04 12:39:58
          Writing application : mkvmerge v5.8.0 ('No Sleep / Pillow') built on Sep  2 2012 15:37:04
          Writing library : libebml v1.2.3 + libmatroska v1.3.0
       Video #2
          ID : 2
          Format : AVC
          Format/Info : Advanced Video Codec
          Format profile : High@L4.0
          Format settings, CABAC : Yes
          Format settings, ReFrames : 3 frames
          Muxing mode : Header stripping
          Codec ID : V_MPEG4/ISO/AVC
          Duration : 47mn 7s
          Bit rate : 7 139 Kbps
          Width : 1 920 pixels
          Height : 1 080 pixels
          Display aspect ratio : 16:9
          Frame rate : 25.000 fps
          Color space : YUV
          Chroma subsampling : 4:2:0
          Bit depth : 8 bits
          Scan type : Interlaced
          Scan order : Top Field First
          Bits/(Pixel*Frame) : 0.138
          Stream size : 2.35 GiB (95%)
          Default : Yes
          Forced : No
          Color primaries : BT.709-5, BT.1361, IEC 61966-2-4, SMPTE RP177
          Transfer characteristics : BT.709-5, BT.1361
          Matrix coefficients : BT.709-5, BT.1361, IEC 61966-2-4 709, SMPTE RP177
       Audio #1
          ID : 1
          Format : MPEG Audio
          Format version : Version 1
          Format profile : Layer 2
          Muxing mode : Header stripping
          Codec ID : A_MPEG/L2
          Codec ID/Hint : MP2
          Duration : 47mn 7s
          Bit rate mode : Constant
          Bit rate : 192 Kbps
          Channel(s) : 2 channels
          Sampling rate : 48.0 KHz
          Compression mode : Lossy
          Delay relative to video : -22ms
          Stream size : 64.7 MiB (3%)
          Default : Yes
          Forced : No





    Phim kèm phụ đề Việt chuẩn:
    Bạn nhấn nút Thanks, sau đó nhấn F5 để lấy link nhé!


    KhoHD Phim Khoa Học Tài Liệu Sub Việt
    Các bạn vui lòng không up các file KhoHD của mình lên Fshare nha. Xin cảm ơn!

  6. 284 người đã cảm ơn hoaitrung


  7. #154
    Digital-2k hoaitrung's Avatar
    Đăng ký
    13-12-09
    Bài viết
    2.424
    Thanks
    1.824
    Thanked
    517.535
    cR
    2.538

    Mặc định Crocs Of Katuma HDTV 1080i AVC_BHT - Cá Sấu Sông Katuma (Sub Việt)

    Crocs Of Katuma HDTV 1080i AVC_BHT

    Cá Sấu Sông Katuma (Sub Việt)



    Media Info
    Code:
    General
    Unique ID                                : 231601617606363941486897537633450509666 (0xAE3CD95B7320344CB02C1BBABB54C562)
    Complete name                            : Crocs Of Katuma HDTV 1080i AVC_BHT (SubViet).mkv
    Format                                   : Matroska
    Format version                           : Version 2
    File size                                : 2.39 GiB
    Duration                                 : 44mn 53s
    Overall bit rate                         : 7 611 Kbps
    Encoded date                             : UTC 2012-08-30 05:12:15
    Writing application                      : mkvmerge v5.7.0 ('The Whirlwind') built on Jul  8 2012 20:08:51
    Writing library                          : libebml v1.2.3 + libmatroska v1.3.0
    
    Video
    ID                                       : 2
    Format                                   : AVC
    Format/Info                              : Advanced Video Codec
    Format profile                           : High@L4.0
    Format settings, CABAC                   : Yes
    Format settings, ReFrames                : 3 frames
    Muxing mode                              : Header stripping
    Codec ID                                 : V_MPEG4/ISO/AVC
    Duration                                 : 44mn 53s
    Bit rate                                 : 7 268 Kbps
    Width                                    : 1 920 pixels
    Height                                   : 1 080 pixels
    Display aspect ratio                     : 16:9
    Frame rate                               : 25.000 fps
    Color space                              : YUV
    Chroma subsampling                       : 4:2:0
    Bit depth                                : 8 bits
    Scan type                                : Interlaced
    Scan order                               : Top Field First
    Bits/(Pixel*Frame)                       : 0.140
    Stream size                              : 2.28 GiB (95%)
    Default                                  : Yes
    Forced                                   : No
    Color primaries                          : BT.709-5, BT.1361, IEC 61966-2-4, SMPTE RP177
    Transfer characteristics                 : BT.709-5, BT.1361
    Matrix coefficients                      : BT.709-5, BT.1361, IEC 61966-2-4 709, SMPTE RP177
    
    Audio
    ID                                       : 1
    Format                                   : MPEG Audio
    Format version                           : Version 1
    Format profile                           : Layer 2
    Muxing mode                              : Header stripping
    Codec ID                                 : A_MPEG/L2
    Codec ID/Hint                            : MP2
    Duration                                 : 44mn 53s
    Bit rate mode                            : Constant
    Bit rate                                 : 192 Kbps
    Channel(s)                               : 2 channels
    Sampling rate                            : 48.0 KHz
    Compression mode                         : Lossy
    Delay relative to video                  : -6ms
    Stream size                              : 61.7 MiB (3%)
    Default                                  : Yes
    Forced                                   : No
    
    Text
    ID                                       : 3
    Format                                   : UTF-8
    Codec ID                                 : S_TEXT/UTF8
    Codec ID/Info                            : UTF-8 Plain Text
    Default                                  : Yes
    Forced                                   : No


    1 link 2.4 GB + Sub Việt
    Bạn nhấn nút Thanks, sau đó nhấn F5 để lấy link nhé!

    KhoHD Phim Khoa Học Tài Liệu Sub Việt
    Các bạn vui lòng không up các file KhoHD của mình lên Fshare nha. Xin cảm ơn!

  8. 122 người đã cảm ơn hoaitrung


  9. #155
    Digital-2k hoaitrung's Avatar
    Đăng ký
    13-12-09
    Bài viết
    2.424
    Thanks
    1.824
    Thanked
    517.535
    cR
    2.538

    Mặc định King Of The Outback 1080i HDTV AVC_BHT - Kẻ Thống Trị Rừng Thẳm (Sub Việt)

    King Of The Outback 1080i HDTV AVC_BHT

    Kẻ Thống Trị Rừng Thẳm (Sub Việt)

    Cá sấu, cá mập bò, cá đao, cá đuối gai độc...những kẻ săn mồi khổng lồ đều muốn chiến đấu giành vị trí độc tôn tại rừng thẳm. Các bạn sẽ biết thêm về chúng qua bộ phim này!

    Code:
       General
          Unique ID : 170214906619317769505952889061867857484 (0x800E32D515CFAD79B83A4EDC62E1264C)
          Complete name : King Of The Outback 1080i HDTV AVC_BHT.mkv
          Format : Matroska
          Format version : Version 2
          File size : 2.36 GiB
          Duration : 44mn 54s
          Overall bit rate : 7 518 Kbps
          Encoded date : UTC 2012-09-04 08:47:09
          Writing application : mkvmerge v5.8.0 ('No Sleep / Pillow') built on Sep  2 2012 15:37:04
          Writing library : libebml v1.2.3 + libmatroska v1.3.0
       Video #2
          ID : 2
          Format : AVC
          Format/Info : Advanced Video Codec
          Format profile : High@L4.0
          Format settings, CABAC : Yes
          Format settings, ReFrames : 3 frames
          Muxing mode : Header stripping
          Codec ID : V_MPEG4/ISO/AVC
          Duration : 44mn 54s
          Bit rate : 7 176 Kbps
          Width : 1 920 pixels
          Height : 1 080 pixels
          Display aspect ratio : 16:9
          Frame rate : 25.000 fps
          Color space : YUV
          Chroma subsampling : 4:2:0
          Bit depth : 8 bits
          Scan type : Interlaced
          Scan order : Top Field First
          Bits/(Pixel*Frame) : 0.138
          Stream size : 2.25 GiB (95%)
          Default : Yes
          Forced : No
          Color primaries : BT.709-5, BT.1361, IEC 61966-2-4, SMPTE RP177
          Transfer characteristics : BT.709-5, BT.1361
          Matrix coefficients : BT.709-5, BT.1361, IEC 61966-2-4 709, SMPTE RP177
       Audio #1
          ID : 1
          Format : MPEG Audio
          Format version : Version 1
          Format profile : Layer 2
          Muxing mode : Header stripping
          Codec ID : A_MPEG/L2
          Codec ID/Hint : MP2
          Duration : 44mn 54s
          Bit rate mode : Constant
          Bit rate : 192 Kbps
          Channel(s) : 2 channels
          Sampling rate : 48.0 KHz
          Compression mode : Lossy
          Delay relative to video : -7ms
          Stream size : 61.7 MiB (3%)
          Default : Yes
          Forced : No
       Text #3
          ID : 3
          Format : UTF-8
          Codec ID : S_TEXT/UTF8
          Codec ID/Info : UTF-8 Plain Text
          Default : Yes
          Forced : No




    Phim kèm phụ đề Việt chuẩn
    Bạn nhấn nút Thanks, sau đó nhấn F5 để lấy link nhé!

    Chỉnh sửa nội dung bởi: hoaitrung, 13-09-2012 lúc 09:41
    KhoHD Phim Khoa Học Tài Liệu Sub Việt
    Các bạn vui lòng không up các file KhoHD của mình lên Fshare nha. Xin cảm ơn!

  10. 126 người đã cảm ơn hoaitrung


  11. #156
    Digital-2k hoaitrung's Avatar
    Đăng ký
    13-12-09
    Bài viết
    2.424
    Thanks
    1.824
    Thanked
    517.535
    cR
    2.538

    Mặc định Animal Impact Jungle 1080i HDTV AVC_BHT - Cuộc Chiến Động Vật Rừng Nhiệt Đới (Sub Việt)

    Animal Impact Jungle 1080i HDTV AVC_BHT

    Cuộc Chiến Động Vật Rừng Nhiệt Đới (Sub Việt)



    Bạn đã bao giờ thấy Rắn bay hàng 100m? Thằn lằn chạy trên nước như trên cạn? Chim có thể bơi lội như Cá? Cá sấu nặng nề có thể phóng như 1 vận động viên olympic?... Những điều không tưởng đó bạn sẽ được chứng kiến trong bộ phim hấp dẫn này!

    Media Info
    Code:
    General
    Unique ID                                : 210868498465382887753895875377131340465 (0x9EA3CBA94FDC97E39797FCDE9072C2B1)
    Complete name                            : Animal Impact Jungle 1080i HDTV AVC_BHT (SubViet).mkv
    Format                                   : Matroska
    Format version                           : Version 2
    File size                                : 2.42 GiB
    Duration                                 : 46mn 54s
    Overall bit rate                         : 7 389 Kbps
    Encoded date                             : UTC 2012-09-06 10:22:28
    Writing application                      : mkvmerge v5.8.0 ('No Sleep / Pillow') built on Sep  2 2012 15:37:04
    Writing library                          : libebml v1.2.3 + libmatroska v1.3.0
    
    Video
    ID                                       : 2
    Format                                   : AVC
    Format/Info                              : Advanced Video Codec
    Format profile                           : High@L4.0
    Format settings, CABAC                   : Yes
    Format settings, ReFrames                : 3 frames
    Muxing mode                              : Header stripping
    Codec ID                                 : V_MPEG4/ISO/AVC
    Bit rate                                 : 7 050 Kbps
    Width                                    : 1 920 pixels
    Height                                   : 1 080 pixels
    Display aspect ratio                     : 16:9
    Frame rate mode                          : Variable
    Original frame rate                      : 25.000 fps
    Color space                              : YUV
    Chroma subsampling                       : 4:2:0
    Bit depth                                : 8 bits
    Scan type                                : Interlaced
    Scan order                               : Top Field First
    Default                                  : Yes
    Forced                                   : No
    Color primaries                          : BT.709
    Transfer characteristics                 : BT.709
    Matrix coefficients                      : BT.709
    
    Audio
    ID                                       : 1
    Format                                   : MPEG Audio
    Format version                           : Version 1
    Format profile                           : Layer 2
    Muxing mode                              : Header stripping
    Codec ID                                 : A_MPEG/L2
    Codec ID/Hint                            : MP2
    Duration                                 : 46mn 54s
    Bit rate mode                            : Constant
    Bit rate                                 : 192 Kbps
    Channel(s)                               : 2 channels
    Sampling rate                            : 48.0 KHz
    Compression mode                         : Lossy
    Delay relative to video                  : -12ms
    Stream size                              : 64.4 MiB (3%)
    Default                                  : Yes
    Forced                                   : No



    Phim kèm phụ đề Việt chuẩn
    Bạn nhấn nút Thanks, sau đó nhấn F5 để lấy link nhé!

    KhoHD Phim Khoa Học Tài Liệu Sub Việt
    Các bạn vui lòng không up các file KhoHD của mình lên Fshare nha. Xin cảm ơn!

  12. 148 người đã cảm ơn hoaitrung


  13. #157
    Digital-2k hoaitrung's Avatar
    Đăng ký
    13-12-09
    Bài viết
    2.424
    Thanks
    1.824
    Thanked
    517.535
    cR
    2.538

    Mặc định Maneater Manhunt HDTV 1080i AVC_BHT - Truy Lùng Thú Ăn Thịt Người : Hổ Hoang (Sub Việt)

    Maneater Manhunt HDTV 1080i AVC_BHT

    Truy Lùng Thú Ăn Thịt Người : Hổ Hoang (Sub Việt)







    Nhà nghiên cứu Gordon Buchanan với cuộc săn lùng kẻ giết người hàng loạt tại vườn quốc gia Chitwan (Nepal) - Đó chính là con Hổ Nagara Pothi.


    Mediainfo
    Code:
    General
    Unique ID                                : 209366922942191712867335104876576045436 (0x9D829A45B030AF2BB46D404E7E7CF97C)
    Complete name                            : Maneater Manhunt HDTV 1080i AVC_BHT (SubViet).mkv
    Format                                   : Matroska
    Format version                           : Version 2
    File size                                : 2.35 GiB
    Duration                                 : 45mn 2s
    Overall bit rate                         : 7 478 Kbps
    Encoded date                             : UTC 2012-08-30 11:47:04
    Writing application                      : mkvmerge v5.7.0 ('The Whirlwind') built on Jul  8 2012 20:08:51
    Writing library                          : libebml v1.2.3 + libmatroska v1.3.0
    
    Video
    ID                                       : 2
    Format                                   : AVC
    Format/Info                              : Advanced Video Codec
    Format profile                           : High@L4.0
    Format settings, CABAC                   : Yes
    Format settings, ReFrames                : 3 frames
    Muxing mode                              : Header stripping
    Codec ID                                 : V_MPEG4/ISO/AVC
    Duration                                 : 45mn 2s
    Bit rate                                 : 7 137 Kbps
    Width                                    : 1 920 pixels
    Height                                   : 1 080 pixels
    Display aspect ratio                     : 16:9
    Frame rate mode                          : Variable
    Frame rate                               : 25.000 fps
    Color space                              : YUV
    Chroma subsampling                       : 4:2:0
    Bit depth                                : 8 bits
    Scan type                                : Interlaced
    Scan order                               : Top Field First
    Bits/(Pixel*Frame)                       : 0.138
    Stream size                              : 2.25 GiB (95%)
    Default                                  : Yes
    Forced                                   : No
    Color primaries                          : BT.709-5, BT.1361, IEC 61966-2-4, SMPTE RP177
    Transfer characteristics                 : BT.709-5, BT.1361
    Matrix coefficients                      : BT.709-5, BT.1361, IEC 61966-2-4 709, SMPTE RP177
    
    Audio
    ID                                       : 1
    Format                                   : MPEG Audio
    Format version                           : Version 1
    Format profile                           : Layer 2
    Muxing mode                              : Header stripping
    Codec ID                                 : A_MPEG/L2
    Codec ID/Hint                            : MP2
    Duration                                 : 45mn 2s
    Bit rate mode                            : Constant
    Bit rate                                 : 192 Kbps
    Channel(s)                               : 2 channels
    Sampling rate                            : 48.0 KHz
    Compression mode                         : Lossy
    Delay relative to video                  : -15ms
    Stream size                              : 61.9 MiB (3%)
    Default                                  : Yes
    Forced                                   : No




    Phim kèm phụ đề Việt chuẩn
    Bạn nhấn nút Thanks, sau đó nhấn F5 để lấy link nhé!






    KhoHD Phim Khoa Học Tài Liệu Sub Việt
    Các bạn vui lòng không up các file KhoHD của mình lên Fshare nha. Xin cảm ơn!


  14. #158
    Digital-2k hoaitrung's Avatar
    Đăng ký
    13-12-09
    Bài viết
    2.424
    Thanks
    1.824
    Thanked
    517.535
    cR
    2.538

    Mặc định World's Creepiest Killers 1080i HDTV AVC_BHT - Những Sát thủ Ghê Rợn Nhất Thế Giới (Sub Việt)

    World's Creepiest Killers 1080i HDTV AVC_BHT

    Những Sát thủ Ghê Rợn Nhất Thế Giới (Sub Việt)



    Media info
    Code:
    General
    Unique ID                                : 179242211906001219919651559127829858496 (0x86D8CB589B95ADE3A8FF58F7E85248C0)
    Complete name                            : World's Creepiest Killers 1080i HDTV AVC_BHT (SubViet).mkv
    Format                                   : Matroska
    Format version                           : Version 2
    File size                                : 2.32 GiB
    Duration                                 : 45mn 5s
    Overall bit rate                         : 7 354 Kbps
    Encoded date                             : UTC 2012-09-05 14:50:33
    Writing application                      : mkvmerge v5.8.0 ('No Sleep / Pillow') built on Sep  2 2012 15:37:04
    Writing library                          : libebml v1.2.3 + libmatroska v1.3.0
    
    Video
    ID                                       : 2
    Format                                   : AVC
    Format/Info                              : Advanced Video Codec
    Format profile                           : High@L4.0
    Format settings, CABAC                   : Yes
    Format settings, ReFrames                : 3 frames
    Muxing mode                              : Header stripping
    Codec ID                                 : V_MPEG4/ISO/AVC
    Bit rate                                 : 7 015 Kbps
    Width                                    : 1 920 pixels
    Height                                   : 1 080 pixels
    Display aspect ratio                     : 16:9
    Frame rate mode                          : Variable
    Original frame rate                      : 25.000 fps
    Color space                              : YUV
    Chroma subsampling                       : 4:2:0
    Bit depth                                : 8 bits
    Scan type                                : Interlaced
    Scan order                               : Top Field First
    Default                                  : Yes
    Forced                                   : No
    Color primaries                          : BT.709
    Transfer characteristics                 : BT.709
    Matrix coefficients                      : BT.709
    
    Audio
    ID                                       : 1
    Format                                   : MPEG Audio
    Format version                           : Version 1
    Format profile                           : Layer 2
    Muxing mode                              : Header stripping
    Codec ID                                 : A_MPEG/L2
    Codec ID/Hint                            : MP2
    Duration                                 : 45mn 5s
    Bit rate mode                            : Constant
    Bit rate                                 : 192 Kbps
    Channel(s)                               : 2 channels
    Sampling rate                            : 48.0 KHz
    Compression mode                         : Lossy
    Delay relative to video                  : -15ms
    Stream size                              : 61.9 MiB (3%)
    Default                                  : Yes
    Forced                                   : No




    Phim kèm phụ đề Việt chuẩn


    Bạn nhấn nút Thanks, sau đó nhấn F5 để lấy link nhé!



    KhoHD Phim Khoa Học Tài Liệu Sub Việt
    Các bạn vui lòng không up các file KhoHD của mình lên Fshare nha. Xin cảm ơn!

  15. 168 người đã cảm ơn hoaitrung


  16. #159
    Digital-2k hoaitrung's Avatar
    Đăng ký
    13-12-09
    Bài viết
    2.424
    Thanks
    1.824
    Thanked
    517.535
    cR
    2.538

    Mặc định Seahorses - Wanted Dead Or Alive 1080i HDTV AVC_BHT - Phim Về Loài Cá Ngựa (Sub Việt)

    Seahorses - Wanted Dead Or Alive 1080i HDTV AVC_BHT

    Phim Về Loài Cá Ngựa (Sub Việt)



    Media Info
    Code:
     General
    Unique ID                                : 185004880093088409580374586193484132843 (0x8B2EA4D2E37C4E68A9F99814149331EB)
    Complete name                            : Seahorses - Wanted Dead Or Alive 1080i HDTV AVC_BHT (SubViet).mkv
    Format                                   : Matroska
    Format version                           : Version 2
    File size                                : 2.32 GiB
    Duration                                 : 43mn 35s
    Overall bit rate                         : 7 613 Kbps
    Encoded date                             : UTC 2012-09-06 08:57:02
    Writing application                      : mkvmerge v5.8.0 ('No Sleep / Pillow') built on Sep  2 2012 15:37:04
    Writing library                          : libebml v1.2.3 + libmatroska v1.3.0
    
    Video
    ID                                       : 2
    Format                                   : AVC
    Format/Info                              : Advanced Video Codec
    Format profile                           : High@L4.0
    Format settings, CABAC                   : Yes
    Format settings, ReFrames                : 3 frames
    Muxing mode                              : Header stripping
    Codec ID                                 : V_MPEG4/ISO/AVC
    Bit rate                                 : 7 269 Kbps
    Width                                    : 1 920 pixels
    Height                                   : 1 080 pixels
    Display aspect ratio                     : 16:9
    Frame rate mode                          : Variable
    Original frame rate                      : 25.000 fps
    Color space                              : YUV
    Chroma subsampling                       : 4:2:0
    Bit depth                                : 8 bits
    Scan type                                : Interlaced
    Scan order                               : Top Field First
    Default                                  : Yes
    Forced                                   : No
    Color primaries                          : BT.709
    Transfer characteristics                 : BT.709
    Matrix coefficients                      : BT.709
    
    Audio
    ID                                       : 1
    Format                                   : MPEG Audio
    Format version                           : Version 1
    Format profile                           : Layer 2
    Muxing mode                              : Header stripping
    Codec ID                                 : A_MPEG/L2
    Codec ID/Hint                            : MP2
    Duration                                 : 43mn 35s
    Bit rate mode                            : Constant
    Bit rate                                 : 192 Kbps
    Channel(s)                               : 2 channels
    Sampling rate                            : 48.0 KHz
    Compression mode                         : Lossy
    Delay relative to video                  : -6ms
    Stream size                              : 59.9 MiB (3%)
    Default                                  : Yes
    Forced                                   : No


    Phim kèm phụ đề Việt chuẩn
    Bạn nhấn nút Thanks, sau đó nhấn F5 để lấy link nhé!

    KhoHD Phim Khoa Học Tài Liệu Sub Việt
    Các bạn vui lòng không up các file KhoHD của mình lên Fshare nha. Xin cảm ơn!


  17. #160
    Digital-2k hoaitrung's Avatar
    Đăng ký
    13-12-09
    Bài viết
    2.424
    Thanks
    1.824
    Thanked
    517.535
    cR
    2.538

    Mặc định Kamchatka Catch 1080i HDTV AVC_BHT - Bắt Cá Hồi Ở Kamchatka (Sub Việt)

    Kamchatka Catch 1080i HDTV AVC_BHT

    Bắt Cá Hồi Ở Kamchatka (Sub Việt)



    Media Info
    Code:
    General
    Unique ID                                : 208313671987432376975079408238407901433 (0x9CB7C0FDA9A6CBA9B0568F42AB66E0F9)
    Complete name                            : Kamchatka Catch 1080i HDTV AVC_BHT (SubViet).mkv
    Format                                   : Matroska
    Format version                           : Version 2
    File size                                : 2.38 GiB
    Duration                                 : 44mn 59s
    Overall bit rate                         : 7 584 Kbps
    Encoded date                             : UTC 2012-09-06 04:56:24
    Writing application                      : mkvmerge v5.8.0 ('No Sleep / Pillow') built on Sep  2 2012 15:37:04
    Writing library                          : libebml v1.2.3 + libmatroska v1.3.0
    
    Video
    ID                                       : 2
    Format                                   : AVC
    Format/Info                              : Advanced Video Codec
    Format profile                           : High@L4.0
    Format settings, CABAC                   : Yes
    Format settings, ReFrames                : 3 frames
    Muxing mode                              : Header stripping
    Codec ID                                 : V_MPEG4/ISO/AVC
    Bit rate                                 : 7 242 Kbps
    Width                                    : 1 920 pixels
    Height                                   : 1 080 pixels
    Display aspect ratio                     : 16:9
    Frame rate mode                          : Variable
    Original frame rate                      : 25.000 fps
    Color space                              : YUV
    Chroma subsampling                       : 4:2:0
    Bit depth                                : 8 bits
    Scan type                                : Interlaced
    Scan order                               : Top Field First
    Default                                  : Yes
    Forced                                   : No
    Color primaries                          : BT.709
    Transfer characteristics                 : BT.709
    Matrix coefficients                      : BT.709
    
    Audio
    ID                                       : 1
    Format                                   : MPEG Audio
    Format version                           : Version 1
    Format profile                           : Layer 2
    Muxing mode                              : Header stripping
    Codec ID                                 : A_MPEG/L2
    Codec ID/Hint                            : MP2
    Duration                                 : 44mn 59s
    Bit rate mode                            : Constant
    Bit rate                                 : 192 Kbps
    Channel(s)                               : 2 channels
    Sampling rate                            : 48.0 KHz
    Compression mode                         : Lossy
    Delay relative to video                  : -7ms
    Stream size                              : 61.8 MiB (3%)
    Default                                  : Yes
    Forced                                   : No




    Phim kèm phụ đề Việt chuẩn
    Bạn nhấn nút Thanks, sau đó nhấn F5 để lấy link nhé!



    KhoHD Phim Khoa Học Tài Liệu Sub Việt
    Các bạn vui lòng không up các file KhoHD của mình lên Fshare nha. Xin cảm ơn!


Trang 16/36 Đầu tiênĐầu tiên ... 6 14 15 16 17 18 26 ... Cuối cùngCuối cùng

Bookmarks

Quyền Sử Dụng Ở Diễn Ðàn

  • Bạn không được phép viết chủ đề mới
  • Bạn không được phép viết trả lời
  • Bạn không được phép gởi đính kèm
  • Bạn không được phép chỉnh sửa bài viết
  •  
$ads2ben
Lên Trên! Xuống Dưới!