Trang 1/2 1 2 Cuối cùngCuối cùng
Kết quả từ 1 tới 10 trên 18
  1. #1
    HD-upscale luongnghi's Avatar
    Đăng ký
    14-09-10
    Bài viết
    63
    Thanks
    327
    Thanked
    2.066
    cR
    321

    Mặc định [Kinh dị] The Exorcist 1973 DC 720p BluRay x264-SiNNERS

    The.Exorcist.1973.DC.720p.BluRay.x264-SiNNERS.mkv


    CODE
    General
    Unique ID : 170168612961215920815810028497443475802 (0x80054860F8FDAB858D6F9510856BD15A)
    Complete name : E:\The.Exorcist.1973\The.Exorcist.1973.DC.720p.BluRay.x264-SiNNERS.mkv
    Format : Matroska
    Format version : Version 2
    File size : 6.55 GiB
    Duration : 2h 12mn
    Overall bit rate : 7 085 Kbps
    Encoded date : UTC 2010-10-07 08:52:59
    Writing application : mkvmerge v4.2.0 ('No Talking') built on Jul 28 2010 18:38:23
    Writing library : libebml v1.0.0 + libmatroska v1.0.0

    Video
    ID : 1
    Format : AVC
    Format/Info : Advanced Video Codec
    Format profile : High@L3.1
    Format settings, CABAC : Yes
    Format settings, ReFrames : 5 frames
    Muxing mode : Header stripping
    Codec ID : V_MPEG4/ISO/AVC
    Duration : 2h 12mn
    Bit rate : 5 579 Kbps
    Width : 1 280 pixels
    Height : 720 pixels
    Display aspect ratio : 16:9
    Frame rate : 23.976 fps
    Color space : YUV
    Chroma subsampling : 4:2:0
    Bit depth : 8 bits
    Scan type : Progressive
    Bits/(Pixel*Frame) : 0.252
    Stream size : 5.02 GiB (77%)
    Writing library : x264 core 105 r1732 2b04482
    Encoding settings : cabac=1 / ref=5 / deblock=1:0:0 / analyse=0x3:0x113 / me=umh / subme=7 / psy=1 / psy_rd=1.00:0.00 / mixed_ref=1 / me_range=16 / chroma_me=1 / trellis=1 / 8x8dct=1 / cqm=0 / deadzone=21,11 / fast_pskip=0 / chroma_qp_offset=-2 / threads=12 / sliced_threads=0 / nr=0 / decimate=1 / interlaced=0 / constrained_intra=0 / bframes=3 / b_pyramid=2 / b_adapt=1 / b_bias=0 / direct=1 / weightb=1 / open_gop=0 / weightp=2 / keyint=250 / keyint_min=23 / scenecut=40 / intra_refresh=0 / rc_lookahead=40 / rc=2pass / mbtree=1 / bitrate=5579 / ratetol=1.0 / qcomp=0.60 / qpmin=10 / qpmax=51 / qpstep=4 / cplxblur=20.0 / qblur=0.5 / ip_ratio=1.40 / aq=1:1.00
    Language : English
    Default : Yes
    Forced : No

    Audio
    ID : 2
    Format : DTS
    Format/Info : Digital Theater Systems
    Format profile : ES
    Muxing mode : Header stripping
    Codec ID : A_DTS
    Duration : 2h 12mn
    Bit rate mode : Constant
    Bit rate : 1 510 Kbps
    Channel(s) : 6 channels
    Channel positions : Front: L C R, Side: L R, LFE
    Sampling rate : 48.0 KHz
    Bit depth : 24 bits
    Compression mode : Lossy
    Stream size : 1.40 GiB (21%)
    Default : Yes
    Forced : No

    Text
    ID : 3
    Format : UTF-8
    Codec ID : S_TEXT/UTF8
    Codec ID/Info : UTF-8 Plain Text
    Language : English
    Default : No
    Forced : No



    HÌNH ẢNH







    NỘI DUNG
    Một con quỷ nhập vào 1 đứa trẻ và hành hạ nó, một mục sư mong muốn giải thoát cho nó để giảm bớt gánh nặng tội lỗi trong lòng
    Ý KIẾN CÁ NHÂN
    Trong phim có nhiều cảnh kinh dị, ám ảnh khá kinh hoàng
    LINK:
    Bạn nhấn nút Thanks, sau đó nhấn F5 để lấy link nhé!

    SUB CHUẨN
    The.Exorcist.1973.DC.720p.BluRay.x264-SiNNERS.srt - Fshare - Dịch vụ chia sẻ, lưu trữ dữ liệu miễn phí tốt nhất


    -----------------------------------------------------------------

  2. 672 người đã cảm ơn luongnghi


  3. #2
    HD-upscale luongnghi's Avatar
    Đăng ký
    14-09-10
    Bài viết
    63
    Thanks
    327
    Thanked
    2.066
    cR
    321

    Mặc định Ðề: The.Exorcist.1973.DC.720p.BluRay.x264-SiNNERS

    Không ai để lại 1 cmt nào sao.

  4. #3
    HD-upscale drde's Avatar
    Đăng ký
    25-01-10
    Bài viết
    95
    Thanks
    199
    Thanked
    26
    cR
    290

    Mặc định Ðề: The.Exorcist.1973.DC.720p.BluRay.x264-SiNNERS

    Trích Nguyên văn bởi luongnghi Xem bài viết
    Không ai để lại 1 cmt nào sao.
    chi vậy bạn có bản 1080p ko nhỉ? tớ muốn sưu tầm, thanks 4 share
    “Don’t count the days, make the days count” – Muhammad Ali

  5. The Following User Says Thank You to drde For This Useful Post:


  6. #4
    HD-upscale luongnghi's Avatar
    Đăng ký
    14-09-10
    Bài viết
    63
    Thanks
    327
    Thanked
    2.066
    cR
    321

    Mặc định Ðề: The.Exorcist.1973.DC.720p.BluRay.x264-SiNNERS

    minh ko co. up cho moi ng dow

  7. #5
    HD-1080i NKDPro's Avatar
    Đăng ký
    03-03-12
    Bài viết
    929
    Thanks
    1.011
    Thanked
    2.641
    cR
    91

    Mặc định Ðề: The.Exorcist.1973.DC.720p.BluRay.x264-SiNNERS

    Phim này mình xem cũng thấy bình thường. Chẳng thấy gì là sợ. @@!

  8. #6

    Mặc định Re: The.Exorcist.1973.DC.720p.BluRay.x264-SiNNERS

    ơ sao mình k lấy đc link ((((((((((((((( giúp với

  9. #7

    Mặc định Ðề: The.Exorcist.1973.DC.720p.BluRay.x264-SiNNERS

    Thank you!, pac. very good movie

  10. #8
    HD-720p mmo2112's Avatar
    Đăng ký
    09-05-12
    Bài viết
    160
    Thanks
    554
    Thanked
    178
    cR
    139

    Mặc định Ðề: [Kinh dị] The Exorcist 1973 DC 720p BluRay x264-SiNNERS

    Kéo thôi, cám ơn bác nhiều nhé!
    Tái bút: Bác nghiền phim này đến nỗi để AVT luôn thì em cũng ái mộ bác thật, y chang em nghiền Saw, nghiền búp bê Billy.

  11. #9

    Mặc định Ðề: [Kinh dị] The Exorcist 1973 DC 720p BluRay x264-SiNNERS

    Thank bác nhiều nhé

    Phim này thì kinh điển rồi


  12. #10
    HD-1080i lackienbinh's Avatar
    Đăng ký
    27-10-11
    Bài viết
    780
    Thanks
    1.835
    Thanked
    606
    cR
    2.303

    Mặc định Ðề: [Kinh dị] The Exorcist 1973 DC 720p BluRay x264-SiNNERS

    Cảm ơn bác chủ nhé!

Trang 1/2 1 2 Cuối cùngCuối cùng

Bookmarks

Quyền Sử Dụng Ở Diễn Ðàn

  • Bạn không được phép viết chủ đề mới
  • Bạn không được phép viết trả lời
  • Bạn không được phép gởi đính kèm
  • Bạn không được phép chỉnh sửa bài viết
  •  
Lên Trên! Xuống Dưới!