Kết quả từ 1 tới 6 trên 6
  1. #1
    HD-720p rubydzu's Avatar
    Đăng ký
    20-11-12
    Bài viết
    425
    Thanks
    62
    Thanked
    6.113
    cR
    27

    Mặc định [Hardsub-Hành động-Tình cảm] Rust and Bone 2012 BluRay 720p DTS.x264-CHD



    Format version : Version 2
    File size : 4.27 GiB
    Duration : 2h 2mn
    Overall bit rate : 4 999 Kbps
    Encoded date : UTC 2012-12-22 07:09:53
    Writing application : mkvmerge v5.6.0 ('Kenya Kane') built on May 27 2012 1604
    Writing library : libebml v1.2.3 + libmatroska v1.3.0

    Video
    ID : 1
    Format : AVC
    Format/Info : Advanced Video Codec
    Format profile : High@L3.1
    Format settings, CABAC : Yes
    Format settings, ReFrames : 4 frames
    Codec ID : V_MPEG4/ISO/AVC
    Duration : 2h 2mn
    Bit rate : 4 615 Kbps
    Width : 1 280 pixels
    Height : 534 pixels
    Display aspect ratio : 2.40:1
    Frame rate mode : Constant
    Frame rate : 24.000 fps
    Color space : YUV
    Chroma subsampling : 40
    Bit depth : 8 bits
    Scan type : Progressive
    Bits/(Pixel*Frame) : 0.281
    Stream size : 3.85 GiB (90%)
    Writing library : x264 core 125 r2200 999b753

    Audio
    ID : 2
    Format : AC-3
    Format/Info : Audio Coding 3
    Mode extension : CM (complete main)
    Format settings, Endianness : Big
    Codec ID : A_AC3
    Duration : 2h 2mn
    Bit rate mode : Constant
    Bit rate : 384 Kbps
    Channel(s) : 6 channels
    Channel positions : Front: L C R, Side: L R, LFE
    Sampling rate : 48.0 KHz
    Bit depth : 16 bits
    Compression mode : Lossy
    Stream size : 336 MiB (8%)
    Default : Yes
    Forced : No
    Cô đơn, thiếu thốn cơ cực, Ali rời bỏ miền bắc nước Pháp, tiếp quản căni nhà của chị gái mình ở vùng Antibes và thành người bảo trợ duy nhất của đứa con trai lên 5 tuổi Sam. Thất nghiệp lang thang, cùng một cậu con trai nhỏ, thật may mắn khi xin được một chân làm bảo vệ cho một hộp đêm gần nhà. Vào một đêm sau khi giải tán đám ẩu đả, Ali gặp người đẹp Stephanie, và đưa cho cô số điện thoại sau khi tận tình tiễn cô về nhà. Địa vị sang trọng trong giới thượng lưu của Stephanie có vẻ như không phù hợp cho một mối tình lãng mạn, nhưng một tan nạn bị thảm đã lấy đi của cô đôi chân. Trong cơn tuyệt vọng với một tâm hồn vỡ nát Stephanie chỉ còn lại Ali. Dần dần Stephanie học được cách can đảm sống tiếp qua nhưng trải nghiệm tuyệt vời với Ali - một người đàn ông nghèo nhưng rất giàu tình yêu với cuộc sống.



    + Password nếu có : vn-kites.com
    + Ai muốn share đi forum khác thì ghi rõ nguồn và kèm theo những ghi chú này .
    + File chia nhỏ bằng WINRAR (nếu có) đã add 5% Recove Record .
    + Nếu link die , pass sai , thì phản hồi trong topic hoặc nhắn tin qua hộp thư mình sẽ fix sớm nhất có thể .


    -----------------------------------------------------------------


  2. #2
    HD-1080p hung_1977_n8's Avatar
    Đăng ký
    03-06-12
    Bài viết
    1.485
    Thanks
    1.785
    Thanked
    46.501
    cR
    887

    Mặc định Ðề: [Hardsub-Hành động-Tình cảm] Rust and Bone 2012 BluRay 720p DTS.x264-CHD

    Phim có cảnh nóng hổi đây
    Down về xem thôi
    Thanks bác

  3. #3
    HD-720p hungpdahl's Avatar
    Đăng ký
    23-08-09
    Bài viết
    119
    Thanks
    246
    Thanked
    58
    cR
    280

    Mặc định Ðề: [Hardsub-Hành động-Tình cảm] Rust and Bone 2012 BluRay 720p DTS.x264-CHD

    Kể có sub thì tốt wa nhỉ..

  4. #4
    HD-1080i quachthang92's Avatar
    Đăng ký
    10-10-11
    Bài viết
    691
    Thanks
    1.161
    Thanked
    362
    cR
    426

    Mặc định Ðề: [Hardsub-Hành động-Tình cảm] Rust and Bone 2012 BluRay 720p DTS.x264-CHD

    vếu to ghê.she is so hot @@

  5. #5
    HD-720p vn-kites's Avatar
    Đăng ký
    14-12-12
    Bài viết
    413
    Thanks
    259
    Thanked
    3.582
    cR
    60

    Mặc định Re: Ðề: [Hardsub-Hành động-Tình cảm] Rust and Bone 2012 BluRay 720p DTS.x264-CHD

    Trích Nguyên văn bởi hungpdahl Xem bài viết
    Kể có sub thì tốt wa nhỉ..
    Sub dc add trong phim day, moi goi la hardsub

  6. The Following User Says Thank You to vn-kites For This Useful Post:


  7. #6
    HD-720p rubydzu's Avatar
    Đăng ký
    20-11-12
    Bài viết
    425
    Thanks
    62
    Thanked
    6.113
    cR
    27

    Mặc định Re: Ðề: [Hardsub-Hành động-Tình cảm] Rust and Bone 2012 BluRay 720p DTS.x264-CHD

    Trích Nguyên văn bởi hungpdahl Xem bài viết
    Kể có sub thì tốt wa nhỉ..
    sub add sẵn cho mọi người dể coi

Bookmarks

Quyền Sử Dụng Ở Diễn Ðàn

  • Bạn không được phép viết chủ đề mới
  • Bạn không được phép viết trả lời
  • Bạn không được phép gởi đính kèm
  • Bạn không được phép chỉnh sửa bài viết
  •  
$ads2ben
Lên Trên! Xuống Dưới!