Trang 1/2 1 2 Cuối cùngCuối cùng
Kết quả từ 1 tới 10 trên 13
  1. #1
    Digital-2k ty_thegunner's Avatar
    Đăng ký
    16-05-11
    Bài viết
    3.805
    Thanks
    608
    Thanked
    304.470
    cR
    680

    Mặc định [Đua xe | F1] Formula 1 2013 GP Espanya SPANiSH 720p HDTV x264 -PERCEPTiON - Đua Xe Công Thức 1 Chặng 5 - Tây Ban Nha

    Formula 1 2013 GP Espanya SPANiSH 720p HDTV x264 -PERCEPTiON
    Đua Xe Công Thức 1 Chặng 5 - Tây Ban Nha




    Code:
    Formula.1.2013.GP.Espanya.SPANiSH.720p.HDTV.x264-PERCEPTiON.mkv
    Format                                   : Matroska
    Format version                           : Version 4 / Version 2
    File size                                : 3.14 GiB
    Duration                                 : 1h 46mn
    Overall bit rate                         : 4 232 Kbps
    Encoded date                             : UTC 2010-02-22 21:41:31
    Writing application                      : mkvmerge v5.9.0 ('On The Loose') built on Dec  9 2012 15:37:01
    Writing library                          : libebml v1.3.0 + libmatroska v1.4.0
    
    Video
    ID                                       : 1
    Format                                   : AVC
    Format/Info                              : Advanced Video Codec
    Format profile                           : High@L4.1
    Format settings, CABAC                   : Yes
    Format settings, ReFrames                : 5 frames
    Muxing mode                              : Header stripping
    Codec ID                                 : V_MPEG4/ISO/AVC
    Duration                                 : 1h 46mn
    Bit rate                                 : 3 956 Kbps
    Width                                    : 1 280 pixels
    Height                                   : 720 pixels
    Display aspect ratio                     : 16:9
    Frame rate                               : 25.000 fps
    Color space                              : YUV
    Chroma subsampling                       : 4:2:0
    Bit depth                                : 8 bits
    Scan type                                : Progressive
    Bits/(Pixel*Frame)                       : 0.172
    Stream size                              : 2.93 GiB (93%)
    Writing library                          : x264 core 132 r2310 76a5c3a
    Encoding settings                        : cabac=1 / ref=5 / deblock=1:0:0 / analyse=0x3:0x113 / me=umh / subme=8 / psy=1 / psy_rd=1.00:0.00 / mixed_ref=1 / me_range=16 / chroma_me=1 / trellis=1 / 8x8dct=1 / cqm=0 / deadzone=21,11 / fast_pskip=1 / chroma_qp_offset=-2 / threads=12 / lookahead_threads=2 / sliced_threads=0 / nr=0 / decimate=1 / interlaced=0 / bluray_compat=0 / constrained_intra=0 / bframes=3 / b_pyramid=2 / b_adapt=2 / b_bias=0 / direct=3 / weightb=1 / open_gop=0 / weightp=2 / keyint=250 / keyint_min=25 / scenecut=40 / intra_refresh=0 / rc_lookahead=50 / rc=crf / mbtree=1 / crf=22.0 / qcomp=0.60 / qpmin=0 / qpmax=69 / qpstep=4 / vbv_maxrate=62500 / vbv_bufsize=78125 / crf_max=0.0 / nal_hrd=none / ip_ratio=1.40 / aq=1:1.00
    Language                                 : English
    Default                                  : Yes
    Forced                                   : No
    
    Audio
    ID                                       : 2
    Format                                   : MPEG Audio
    Format version                           : Version 1
    Format profile                           : Layer 2
    Muxing mode                              : Header stripping
    Codec ID                                 : A_MPEG/L2
    Codec ID/Hint                            : MP2
    Duration                                 : 1h 46mn
    Bit rate mode                            : Constant
    Bit rate                                 : 192 Kbps
    Channel(s)                               : 2 channels
    Sampling rate                            : 48.0 KHz
    Compression mode                         : Lossy
    Stream size                              : 146 MiB (5%)
    Default                                  : Yes
    Forced                                   : No





    Formula.1.2013.GP.Espanya.SPANiSH.720p.HDTV.x264-PERCEPTiON
    1 LINK: 3,14 GB
    Bạn nhấn nút Thanks, sau đó nhấn F5 để lấy link nhé!





    Bạn đọc bài nếu thấy hay thì ấn "Thank" và "Trả lời" giúp mình đôi lời để ủng hộ tinh thần mình Upload tiếp nhé!


    -----------------------------------------------------------------


  2. #2
    Digital-2k sexyca's Avatar
    Đăng ký
    17-04-11
    Bài viết
    3.488
    Thanks
    3.573
    Thanked
    11.971
    cR
    4.811

    Mặc định Ðề: [Đua xe | F1] Formula 1 2013 GP Espanya SPANiSH 720p HDTV x264 -PERCEPTiON - Đua Xe Công Thức 1 Chặng 5 - Tây Ban Nha

    Alonso quá đẳng cấp, xứng đáng là tay đua số 1. Nhà Mercedes phân hạng thì tốt mà khi vào đua thì tệ quá

  3. #3
    HD-upscale proasian8118's Avatar
    Đăng ký
    23-12-10
    Bài viết
    14
    Thanks
    220
    Thanked
    10
    cR
    131

    Mặc định Ðề: [Đua xe | F1] Formula 1 2013 GP Espanya SPANiSH 720p HDTV x264 -PERCEPTiON - Đua Xe Công Thức 1 Chặng 5 - Tây Ban Nha

    Sân nhà Alonso vô đối. Mercedes chỉ trú trọng vào nước Pole. KO thể trách Nico rosberg và Hamilton. Trách kỹ thuật của Mec quá bình thường. Lần nào xe cũng bị tuột hậu. Từ lúc Micheal shumacher còn chạy cho Mec hồi năm rồi. Anh đã phát hiện ra điều đó. Nhưng kỹ thuật của Mec vẫn ko chịu khắc phục. Năm nay vẫn thế. Hamilton và Ros chạy quá good. nhưng tiếc là xe quá cùi . trách ông Brawn

  4. The Following User Says Thank You to proasian8118 For This Useful Post:

    sexyca 

  5. #4
    HD-1080i lanem's Avatar
    Đăng ký
    09-02-10
    Bài viết
    873
    Thanks
    1.860
    Thanked
    551
    cR
    1.089

    Mặc định Re: [Đua xe | F1] Formula 1 2013 GP Espanya SPANiSH 720p HDTV x264 -PERCEPTiON - Đua Xe Công Thức 1 Chặng 5 - Tây Ban Nha

    bản này âm thanh thế nào bác?
    Milan, solo con te ... Milan sempre per te ...

  6. #5
    Digital-2k sexyca's Avatar
    Đăng ký
    17-04-11
    Bài viết
    3.488
    Thanks
    3.573
    Thanked
    11.971
    cR
    4.811

    Mặc định Ðề: Re: [Đua xe | F1] Formula 1 2013 GP Espanya SPANiSH 720p HDTV x264 -PERCEPTiON - Đua Xe Công Thức 1 Chặng 5 - Tây Ban Nha

    Trích Nguyên văn bởi lanem Xem bài viết
    bản này âm thanh thế nào bác?
    Chắc là 5.1, có bản 50fps với nhiều kênh audio, trong đó có âm thanh trường đua (ko có bình luận, cái này xem rất là phê nghe rõ tiếng xe )

  7. #6
    HD-1080i lanem's Avatar
    Đăng ký
    09-02-10
    Bài viết
    873
    Thanks
    1.860
    Thanked
    551
    cR
    1.089

    Mặc định Re: [Đua xe | F1] Formula 1 2013 GP Espanya SPANiSH 720p HDTV x264 -PERCEPTiON - Đua Xe Công Thức 1 Chặng 5 - Tây Ban Nha

    em muốn hỏi âm thanh AC3 hay DTS.
    Audio bitrate bao nhiêu vậy bác?
    Milan, solo con te ... Milan sempre per te ...

  8. #7
    Digital-2k ty_thegunner's Avatar
    Đăng ký
    16-05-11
    Bài viết
    3.805
    Thanks
    608
    Thanked
    304.470
    cR
    680

    Mặc định Ðề: Re: [Đua xe | F1] Formula 1 2013 GP Espanya SPANiSH 720p HDTV x264 -PERCEPTiON - Đua Xe Công Thức 1 Chặng 5 - Tây Ban Nha

    Trích Nguyên văn bởi lanem Xem bài viết
    em muốn hỏi âm thanh AC3 hay DTS.
    Audio bitrate bao nhiêu vậy bác?
    Trích Nguyên văn bởi sexyca Xem bài viết
    Chắc là 5.1, có bản 50fps với nhiều kênh audio, trong đó có âm thanh trường đua (ko có bình luận, cái này xem rất là phê nghe rõ tiếng xe )
    Trích Nguyên văn bởi lanem Xem bài viết
    bản này âm thanh thế nào bác?
    Đã cập nhật INFO đầy đủ mọi người nhé!

  9. The Following User Says Thank You to ty_thegunner For This Useful Post:

    sexyca 

  10. #8
    HD-720p microbig's Avatar
    Đăng ký
    19-03-10
    Bài viết
    102
    Thanks
    1.595
    Thanked
    36
    cR
    869

    Mặc định Ðề: [Đua xe | F1] Formula 1 2013 GP Espanya SPANiSH 720p HDTV x264 -PERCEPTiON - Đua Xe Công Thức 1 Chặng 5 - Tây Ban Nha

    Quá GOOD! THanks Bác cả! Mình thấy MẸC cần phải căn chỉnh lại động cơ, chạy chục vòng thì GOOD chứ trên chục vòng là máy móc có v/đ. Trong khi đó anh FER. thì càng chạy càng tít. HÔm qua đúng là ngày của TBN. Nhưng cũng phải khen ngợi KIMI, nếu đc về FER thì chắc chắn sẽ là FER 1 & 2. Trận này Setup của Bò mộng không tốt lắm, hy vọng chặng tới đây tại MONACO sẽ kịch tính hơn. Tuy nhiên sẽ không còn nhiều pha núp gió để vượt. KHông biết anh MẸC giành POLE xong có lại tiếp tục bị mất điểm kô nữa!?!

  11. The Following User Says Thank You to microbig For This Useful Post:

    sexyca 

  12. #9
    HD-1080i leewanhee's Avatar
    Đăng ký
    06-12-09
    Bài viết
    543
    Thanks
    1.160
    Thanked
    185
    cR
    597

    Mặc định Ðề: [Đua xe | F1] Formula 1 2013 GP Espanya SPANiSH 720p HDTV x264 -PERCEPTiON - Đua Xe Công Thức 1 Chặng 5 - Tây Ban Nha

    phim này có đầy đủ hết các vòng không bạn. Nếu có cho xin link down với nhe. Thank

  13. #10
    HD-upscale binky92's Avatar
    Đăng ký
    26-08-11
    Bài viết
    63
    Thanks
    838
    Thanked
    43
    cR
    389

    Mặc định Ðề: [Đua xe | F1] Formula 1 2013 GP Espanya SPANiSH 720p HDTV x264 -PERCEPTiON - Đua Xe Công Thức 1 Chặng 5 - Tây Ban Nha

    Chủ thớt có cả giải moto GP up lên được không

Trang 1/2 1 2 Cuối cùngCuối cùng

Tags for this Thread

Bookmarks

Quyền Sử Dụng Ở Diễn Ðàn

  • Bạn không được phép viết chủ đề mới
  • Bạn không được phép viết trả lời
  • Bạn không được phép gởi đính kèm
  • Bạn không được phép chỉnh sửa bài viết
  •  
$ads2ben
Lên Trên! Xuống Dưới!