Rock Of Ages (2012) DVDRip XviD-S4A
File Size: 700 MiB




Code:
General
Complete name                            : s4a-rock.of.ages.dvdrip.xvid.avi
Format                                   : AVI
Format/Info                              : Audio Video Interleave
File size                                : 700 MiB
Duration                                 : 2h 3mn
Overall bit rate mode                    : Variable
Overall bit rate                         : 794 Kbps

Video
ID                                       : 0
Format                                   : MPEG-4 Visual
Format profile                           : Advanced Simple@L5
Format settings, BVOP                    : 2
Format settings, QPel                    : No
Format settings, GMC                     : No warppoints
Format settings, Matrix                  : Default (H.263)
Codec ID                                 : XVID
Codec ID/Hint                            : XviD
Duration                                 : 2h 3mn
Bit rate                                 : 663 Kbps
Width                                    : 608 pixels
Height                                   : 256 pixels
Display aspect ratio                     : 2.40:1
Frame rate                               : 23.976 fps
Color space                              : YUV
Chroma subsampling                       : 4:2:0
Bit depth                                : 8 bits
Scan type                                : Progressive
Compression mode                         : Lossy
Bits/(Pixel*Frame)                       : 0.178
Stream size                              : 585 MiB (83%)
Writing library                          : XviD 1.2.1 (UTC 2008-12-04)

Audio
ID                                       : 1
Format                                   : MPEG Audio
Format version                           : Version 1
Format profile                           : Layer 3
Mode                                     : Joint stereo
Mode extension                           : MS Stereo
Codec ID                                 : 55
Codec ID/Hint                            : MP3
Duration                                 : 2h 3mn
Bit rate mode                            : Variable
Bit rate                                 : 118 Kbps
Nominal bit rate                         : 128 Kbps
Channel(s)                               : 2 channels
Sampling rate                            : 48.0 KHz
Compression mode                         : Lossy
Stream size                              : 104 MiB (15%)
Alignment                                : Aligned on interleaves
Interleave, duration                     : 24 ms (0.58 video frame)
Interleave, preload duration             : 197 ms
Code:
http://www.imdb.com/title/tt1336608/







DOWNLOAD:
Code:
http://netload.in/datei2IJe0tZ5lW/Rock.Of.Ages.2012.DVDRip.XviD.S4A.part1.rar.htm
http://netload.in/dateivl1QX7vnQi/Rock.Of.Ages.2012.DVDRip.XviD.S4A.part2.rar.htm
http://netload.in/dateiBLDWnmqNsI/Rock.Of.Ages.2012.DVDRip.XviD.S4A.part3.rar.htm

http://rapidgator.net/file/46398234/Rock.Of.Ages.2012.DVDRip.XviD.S4A.part1.rar.html
http://rapidgator.net/file/46398240/Rock.Of.Ages.2012.DVDRip.XviD.S4A.part2.rar.html
http://rapidgator.net/file/46398146/Rock.Of.Ages.2012.DVDRip.XviD.S4A.part3.rar.html

http://extabit.com/file/27szirtfcjqay/Rock.Of.Ages.2012.DVDRip.XviD.S4A.part1.rar
http://extabit.com/file/27szirtfcjn2i/Rock.Of.Ages.2012.DVDRip.XviD.S4A.part2.rar
http://extabit.com/file/27szirtfcjdje/Rock.Of.Ages.2012.DVDRip.XviD.S4A.part3.rar

http://rapidshare.com/files/3248709391/Rock.Of.Ages.2012.DVDRip.XviD.S4A.part1.rar
http://rapidshare.com/files/1230484207/Rock.Of.Ages.2012.DVDRip.XviD.S4A.part2.rar
http://rapidshare.com/files/1778755850/Rock.Of.Ages.2012.DVDRip.XviD.S4A.part3.rar
DOWNLOAD SINGL LINKS:
Code:
http://netload.in/dateiFNZsO6pzsu/Rock.Of.Ages.SingL.rar.htm
http://extabit.com/file/27szirtfbwte2/Rock.Of.Ages.SingL.rar
http://rapidgator.net/file/46398542/Rock.Of.Ages.SingL.rar.html