Kết quả từ 1 tới 6 trên 6
  1. #1
    HD-1080i nguyentientho94's Avatar
    Đăng ký
    24-01-10
    Bài viết
    568
    Thanks
    133
    Thanked
    1.978
    cR
    680

    Mặc định [4SHARE.VN] Hài Xuân Hinh Hè 2010 - Người ngựa, ngựa người 2 & Xuân Hinh thua World Cup

    HÀI XUÂN HINH HÈ 2010 - Người ngựa, ngựa người 2 & Xuân Hinh thua World Cup




    Code:
    General
    Complete name                    : D:\HAIXUANHINH_HE2010.DAT
    Format                           : CDXA/MPEG-PS
    File size                        : 718 MiB
    Duration                         : 1h 11mn
    Overall bit rate                 : 1 412 Kbps
    Writing library                  : encoded by TMPGEnc 4.0 XPress Version. 4.7.4.299
    
    Video
    ID                               : 224 (0xE0)
    Format                           : MPEG Video
    Format version                   : Version 1
    Format settings, BVOP            : Yes
    Format settings, Matrix          : Default
    Duration                         : 1h 11mn
    Bit rate mode                    : Constant
    Bit rate                         : 1 150 Kbps
    Width                            : 352 pixels
    Height                           : 288 pixels
    Display aspect ratio             : 4:3
    Frame rate                       : 25.000 fps
    Standard                         : PAL
    Color space                      : YUV
    Bit depth                        : 8 bits
    Scan type                        : Progressive
    Bits/(Pixel*Frame)               : 0.454
    Stream size                      : 590 MiB (82%)
    Writing library                  : TMPGEnc XPress 4.7.4.299
    
    Audio
    ID                               : 192 (0xC0)
    Format                           : MPEG Audio
    Format version                   : Version 1
    Format profile                   : Layer 2
    Duration                         : 1h 11mn
    Bit rate mode                    : Constant
    Bit rate                         : 224 Kbps
    Channel(s)                       : 2 channels
    Sampling rate                    : 44.1 KHz
    Stream size                      : 114 MiB (16%)

    DOWNLOAD (1 file x 717 MB)

    http://forum.f5refresh.net/showthread.php?t=305


    Uploaded by F5 REFRESH TEAM

    Xin hãy ghi rõ nguồn của bài viết (http://f5refresh.net) nếu chia sẻ sang các diễn đàn khác ! Xin cảm ơn.


    -----------------------------------------------------------------
    Chỉnh sửa nội dung bởi: nguyentientho94, 30-05-2010 lúc 23:24

  2. 6 người đã cảm ơn nguyentientho94


  3. #2

    Mặc định Ðề: [4SHARE.VN] Hài Xuân Hinh Hè 2010 - Người ngựa, ngựa người 2 & Xuân Hinh thua World Cup

    Hehe bóc tem bóc tem, Thanks bạn phát!

  4. #3
    HD-upscale thunet123's Avatar
    Đăng ký
    09-01-10
    Bài viết
    48
    Thanks
    46
    Thanked
    391
    cR
    13

    Mặc định Ðề: [4SHARE.VN] Hài Xuân Hinh Hè 2010 - Người ngựa, ngựa người 2 & Xuân Hinh thua World Cup

    Link đao : http://up.4share.vn/f/4471747c707d/H...E2010.DAT.file





    Xin hãy ghi rõ nguồn của bài viết (http://f5refresh.net) nếu chia sẻ sang các diễn đàn khác ! Xin cảm ơn.
    Tôi Có Làm Gì Đâu Mà Khai

  5. #4
    HD-720p locvietvm's Avatar
    Đăng ký
    14-12-09
    Bài viết
    148
    Thanks
    15
    Thanked
    96
    cR
    89

    Mặc định Ðề: [4SHARE.VN] Hài Xuân Hinh Hè 2010 - Người ngựa, ngựa người 2 & Xuân Hinh thua World Cup

    xem xuân hinh ngày càng chán. mất hết cả hứng

  6. #5
    HD-1080i hoangtubongma's Avatar
    Đăng ký
    08-08-09
    Bài viết
    905
    Thanks
    2.361
    Thanked
    1.499
    cR
    1.065

    Mặc định Ðề: [4SHARE.VN] Hài Xuân Hinh Hè 2010 - Người ngựa, ngựa người 2 & Xuân Hinh thua World Cup

    Được thời ngày xưa, xem Xuân Hinh ko bao giờ chán. Bây h, nhìn mặt thấy ghét. Cũng giống như Ưng Hoàng Phúc vậy

  7. #6
    HD-upscale laanhdo's Avatar
    Đăng ký
    22-03-10
    Bài viết
    40
    Thanks
    0
    Thanked
    840
    cR
    0

    Mặc định Ðề: [4SHARE.VN] Hài Xuân Hinh Hè 2010 - Người ngựa, ngựa người 2 & Xuân Hinh thua World Cup

    Đề nghị chủ thớt lần sau không đưa link ra lừa đảo anh em.

Bookmarks

Quyền Sử Dụng Ở Diễn Ðàn

  • Bạn không được phép viết chủ đề mới
  • Bạn không được phép viết trả lời
  • Bạn không được phép gởi đính kèm
  • Bạn không được phép chỉnh sửa bài viết
  •  
$ads2ben
Lên Trên! Xuống Dưới!