Kết quả từ 1 tới 2 trên 2
  1. #1
    Digital-2k BollyCorner's Avatar
    Đăng ký
    27-11-11
    Bài viết
    2.710
    Thanks
    0
    Thanked
    669
    cR
    435

    Thumbs up Despicable Me 2 (2013) BDRip XviD-EXViD



    Release Notes
    Code:
      
                                  Despicable.Me.2.2013.BDRip.XviD-EXViD
                                                                                                   
    EXViD aims to iNTERNAL those releases which have been lost in the archives.
    EXViD aims to PRE non-internal releases which have poor sources and are likely skipped by others.
    
    http://www.imdb.com/title/tt1690953/
    Subtitles: EN HI, FR, DE, TR, NL, IS, HR, HE
    Date: 2013.10
    
    Directors: Pierre Coffin, Chris Renaud
    
    Genres: Animation |  Adventure |  Comedy |  Crime |  Family |  Sci-Fi
    
    Plot:
    While Gru, the ex-supervillain is adjusting to family life and an attempted honest living in
    the jam business, a secret Arctic laboratory is stolen. The Anti-Villain League decides it
    needs an insider's help and recruits Gru in the investigation. Together with the eccentric
    AVL agent, Lucy Wilde, Gru concludes that his prime suspect is the presumed dead supervillain,
    El Macho, whose his teenage son is also making the moves on his eldest daughter, Margo.
    Seemingly blinded by his overprotectiveness of his children and his growing mutual attraction
    to Lucy, Gru seems on the wrong track even as his minions are being quietly kidnapped en
    masse for some malevolent purpose.
    
    Cast:
    Steve Carell 	 ... 	Gru (voice) 
    Kristen Wiig 	 ... 	Lucy (voice) 
    Benjamin Bratt 	 ... 	Eduardo / El Macho (voice) 
    Miranda Cosgrove 	 ... 	Margo (voice) 
    Russell Brand 	 ... 	Dr. Nefario (voice) 
    Ken Jeong 	 ... 	Floyd (voice) 
    Steve Coogan 	 ... 	Silas (voice) 
    Elsie Fisher 	 ... 	Agnes (voice) 
    Dana Gaier 	 ... 	Edith (voice) 
    Moises Arias 	 ... 	Antonio (voice) 
    Nasim Pedrad 	 ... 	Jillian (voice) 
    Kristen Schaal 	 ... 	 Shannon (voice) 
    Pierre Coffin 	 ... 	Kevin the Minion / Bob the Minion / Stuart the Minion / Additional Minions / Evil Minions (voice) 
    Chris Renaud 	 ... 	 Additional Minions / Evil Minions / Italian Waiter (voice) 
    Nickolai Stoilov 	 ... 	 Arctic Lab Guard (voice)
    
    Stats:
    Format                           : AVI
    Format/Info                      : Audio Video Interleave
    File size                        : 701 MiB
    Duration                         : 1h 37mn
    Overall bit rate                 : 1 001 Kbps
    Writing library                  : VirtualDub build 32842/release
    
    Video
    ID                               : 0
    Format                           : MPEG-4 Visual
    Format profile                   : Advanced Simple@L5
    Format settings, BVOP            : Yes
    Format settings, QPel            : No
    Format settings, GMC             : No warppoints
    Format settings, Matrix          : Default (H.263)
    Muxing mode                      : Packed bitstream
    Codec ID                         : XVID
    Codec ID/Hint                    : XviD
    Duration                         : 1h 37mn
    Bit rate                         : 861 Kbps
    Width                            : 624 pixels
    Height                           : 336 pixels
    Display aspect ratio             : 1.857
    Frame rate                       : 23.976 fps
    Color space                      : YUV
    Chroma subsampling               : 4:2:0
    Bit depth                        : 8 bits
    Scan type                        : Progressive
    Bits/(Pixel*Frame)               : 0.171
    Stream size                      : 604 MiB (86%)
    Writing library                  : XviD 1.2.1 (UTC 2008-12-04)
    
    Audio
    ID                               : 1
    Format                           : MPEG Audio
    Format version                   : Version 1
    Format profile                   : Layer 3
    Mode                             : Joint stereo
    Mode extension                   : MS Stereo
    Codec ID                         : 55
    Codec ID/Hint                    : MP3
    Duration                         : 1h 37mn
    Bit rate mode                    : Variable
    Bit rate                         : 128 Kbps
    Channel(s)                       : 2 channels
    Sampling rate                    : 48.0 KHz
    Stream size                      : 88.6 MiB (13%)
    Alignment                        : Aligned on interleaves
    Interleave, duration             : 24 ms (0.58 video frame)
    Interleave, preload duration     : 145 ms
    Writing library                  : LAME3.99r
    Encoding settings                : -m j -V 4 -q 2 -lowpass 17 --abr 128
    Screens






    Sample
    Code:
    http://www.sendspace.com/file/lha9t7
    DownLoad

    RapidGator
    Code:
    http://rapidgator.net/file/1e07d571c37b5cbb14418e495c911ccf/exvid-despicablemetwo.avi.html
    
    http://rapidgator.net/file/932fa48f63d7ca066d79423d2ce2a85e/Subs-DM2.rar.html
    Uploaded.to
    Code:
    http://uploaded.net/file/8sy0fh5y/exvid-despicablemetwo.avi
    
    http://uploaded.net/file/vldxp3dy/Subs-DM2.rar
    ExtaBit
    Code:
    http://extabit.com/file/279soj6bfa01r/exvid-despicablemetwo.avi
    
    http://extabit.com/file/279soj6bf9wxb/Subs-DM2.rar
    NetLoad
    Code:
    http://netload.in/dateiG7WVqp8fwe/exvid-despicablemetwo.avi.htm
    
    http://netload.in/dateiYm5IKundsK/Subs-DM2.rar.htm


    -----------------------------------------------------------------

  2. #2
    HD-720p tungdesign's Avatar
    Đăng ký
    17-04-09
    Bài viết
    357
    Thanks
    262
    Thanked
    122
    cR
    1.050

    Mặc định Ðề: Despicable Me 2 (2013) BDRip XviD-EXViD

    bóc tem, hàng hot đây.... cám ơn bác nhiều nhé.
    Không có người thất bại, chỉ có người chưa thành công.
    In card offset 200k/10 hộp - [M]: 0983 113 776 - Y!M: ctyintungvan

Bookmarks

Quyền Sử Dụng Ở Diễn Ðàn

  • Bạn không được phép viết chủ đề mới
  • Bạn không được phép viết trả lời
  • Bạn không được phép gởi đính kèm
  • Bạn không được phép chỉnh sửa bài viết
  •  
$ads2ben
Lên Trên! Xuống Dưới!