Trang 1/5 1 2 3 ... Cuối cùngCuối cùng
Kết quả từ 1 tới 10 trên 49
  1. #1
    Tem Uploader
    xemaydinh's Avatar
    Đăng ký
    03-07-10
    Bài viết
    14.807
    Thanks
    5.012
    Thanked
    1.145.973
    cR
    2.927

    Mặc định [Viễn Tưởng | 1link ] Power Rangers Samurai (2011) 720p -5 anh em siêu nhân Samurai (trọn bộ 23 tập)

    Power Rangers Samurai (2011) 720p -5 anh em siêu nhân Samurai






    Power Rangers Samurai is the nineteenth season of the American children's television series Power Rangers. With Saban Brands buying back the franchise, the show will be produced by SCG Power Rangers and began airing on Nickelodeon and Nicktoons on February 7, 2011. While the series has rebranded itself with new themes and names since Power Rangers Zeo, the samurai theme will remain for at least two years. As with all Power Rangers programs, Power Rangers Samurai is based on one of the entries of the Super Sentai Series; in the case of Samurai, the source series is Samurai Sentai Shinkenger. Saban Brands have said the show will have a "brighter tone and gets an infusion of fun and comedy that wasn't present in [Jungle Fury and RPM]".



    Code:
          Complete name : C:Documents and SettingsdinhMy DocumentsDownloadsPRS_HD_08.mp4
          Format : MPEG-4
          Format profile : Base Media
          Codec ID : isom
          File size : 558 MiB
          Duration : 23mn 36s
          Overall bit rate : 3 305 Kbps
          Encoded date : UTC 2011-03-26 18:38:31
          Tagged date : UTC 2011-03-26 18:38:31
          Writing application : Yamb 2.1.0.0 [http://yamb.unite-video.com]
       Video #1
          ID : 1
          Format : AVC
          Format/Info : Advanced Video Codec
          Format profile : Main@L3.1
          Format settings, CABAC : No
          Format settings, ReFrames : 4 frames
          Format settings, GOP : M=3, N=28
          Codec ID : avc1
          Codec ID/Info : Advanced Video Coding
          Duration : 23mn 36s
          Bit rate mode : Variable
          Bit rate : 3 053 Kbps
          Maximum bit rate : 9 564 Kbps
          Width : 1 280 pixels
          Height : 720 pixels
          Display aspect ratio : 16:9
          Frame rate mode : Constant
          Frame rate : 23.976 fps
          Color space : YUV
          Chroma subsampling : 4:2:0
          Bit depth : 8 bits
          Scan type : Progressive
          Bits/(Pixel*Frame) : 0.138
          Stream size : 515 MiB (92%)
          Writing library : x264 core 112 r1867 22bfd31
          Encoding settings : cabac=0 / ref=1 / deblock=1:0:0 / analyse=0x1:0x111 / me=umh / subme=6 / psy=1 / psy_rd=1.00:0.00 / mixed_ref=0 / me_range=12 / chroma_me=1 / trellis=0 / 8x8dct=0 / cqm=0 / deadzone=21,11 / fast_pskip=1 / chroma_qp_offset=-2 / threads=12 / sliced_threads=0 / nr=0 / decimate=1 / interlaced=0 / constrained_intra=0 / bframes=3 / b_pyramid=2 / b_adapt=2 / b_bias=0 / direct=0 / weightb=1 / open_gop=0 / weightp=2 / keyint=250 / keyint_min=23 / scenecut=40 / intra_refresh=0 / rc_lookahead=40 / rc=2pass / mbtree=1 / bitrate=3053 / ratetol=1.0 / qcomp=0.60 / qpmin=16 / qpmax=51 / qpstep=4 / cplxblur=20.0 / qblur=0.5 / vbv_maxrate=12000 / vbv_bufsize=5000 / nal_hrd=none / ip_ratio=1.40 / aq=1:1.00
          Encoded date : UTC 2011-03-26 18:38:31
          Tagged date : UTC 2011-03-26 18:38:57
       Audio #2
          ID : 2
          Format : AAC
          Format/Info : Advanced Audio Codec
          Format profile : LC
          Codec ID : 40
          Duration : 23mn 36s
          Bit rate mode : Variable
          Bit rate : 248 Kbps
          Maximum bit rate : 306 Kbps
          Channel(s) : 2 channels
          Channel positions : Front: L R
          Sampling rate : 48.0 KHz
          Compression mode : Lossy
          Stream size : 41.9 MiB (8%)
          Encoded date : UTC 2011-03-26 18:38:49
          Tagged date : UTC 2011-03-26 18:38:57





    Tập 1>23


    Bạn nhấn nút Thanks, sau đó nhấn F5 để lấy link nhé!



    Sub E



    Season 2


    -----------------------------------------------------------------
    Chỉnh sửa nội dung bởi: xemaydinh, 25-03-2012 lúc 13:09

  2. 403 người đã cảm ơn xemaydinh


  3. #2

    Mặc định Ðề: [Viễn Tưởng | 1link ] Power Rangers Samurai (2011) 720p -5 anh em siêu nhân Samurai

    tuổi thơ là đây

  4. The Following User Says Thank You to tenlatung For This Useful Post:


  5. #3
    HD-upscale vilytily's Avatar
    Đăng ký
    30-10-10
    Bài viết
    57
    Thanks
    323
    Thanked
    30
    cR
    59

    Mặc định Ðề: [Viễn Tưởng | 1link ] Power Rangers Samurai (2011) 720p -5 anh em siêu nhân Samurai

    không biet noi gi hơn, thanks thanks, keo về liền thôi, cho nhóc o nhà xem

  6. 2 người đã cảm ơn vilytily


  7. #4
    HD-1080i k3nz0's Avatar
    Đăng ký
    02-08-11
    Bài viết
    690
    Thanks
    545
    Thanked
    6.526
    cR
    1.028

    Mặc định Ðề: [Viễn Tưởng | 1link ] Power Rangers Samurai (2011) 720p -5 anh em siêu nhân Samurai

    Mấy tập này có phải là SS2 không Bác ?

    Thanks Bro !

  8. The Following User Says Thank You to k3nz0 For This Useful Post:


  9. #5
    Tem Uploader
    xemaydinh's Avatar
    Đăng ký
    03-07-10
    Bài viết
    14.807
    Thanks
    5.012
    Thanked
    1.145.973
    cR
    2.927

    Mặc định Ðề: [Viễn Tưởng | 1link ] Power Rangers Samurai (2011) 720p -5 anh em siêu nhân Samurai

    Trích Nguyên văn bởi k3nz0 Xem bài viết
    Mấy tập này có phải là SS2 không Bác ?

    Thanks Bro !
    SS2 đó bác gồm 23 tập

  10. The Following User Says Thank You to xemaydinh For This Useful Post:


  11. #6
    HD-1080i playstation_vn's Avatar
    Đăng ký
    28-08-10
    Bài viết
    509
    Thanks
    1.144
    Thanked
    299
    cR
    671

    Mặc định Ðề: [Viễn Tưởng | 1link ] Power Rangers Samurai (2011) 720p -5 anh em siêu nhân Samurai

    Oh, con trai mình thích phim này lắm.
    Cám ơn bro nhiều

  12. The Following User Says Thank You to playstation_vn For This Useful Post:


  13. #7
    HD-720p xidau157's Avatar
    Đăng ký
    09-05-10
    Bài viết
    205
    Thanks
    1.006
    Thanked
    155
    cR
    1.348

    Mặc định Ðề: [Viễn Tưởng | 1link ] Power Rangers Samurai (2011) 720p -5 anh em siêu nhân Samurai

    phim có phụ đề Việt hay thuyết minh gì không vậy bạn xemaydinh

  14. The Following User Says Thank You to xidau157 For This Useful Post:


  15. #8
    HD-720p kieubangchu's Avatar
    Đăng ký
    26-12-09
    Bài viết
    335
    Thanks
    94
    Thanked
    235
    cR
    220

    Mặc định Ðề: [Viễn Tưởng | 1link ] Power Rangers Samurai (2011) 720p -5 anh em siêu nhân Samurai

    Trích Nguyên văn bởi xemaydinh Xem bài viết
    SS2 đó bác gồm 23 tập
    SS2 nào, bác này vớ vỉn, phim này em up lâu rồi, full 23 tập lâu rồi, link đây này

    http://www.hdvietnam.com/diendan/139...te-weekly.html

    Hôm qua em có post link SS2 rồi mà ko hiểu sao bác mod nào del mất, vừa post lại ở đây

    http://www.hdvietnam.com/diendan/57-...eason-2-a.html

  16. The Following User Says Thank You to kieubangchu For This Useful Post:


  17. #9
    Tem Uploader
    xemaydinh's Avatar
    Đăng ký
    03-07-10
    Bài viết
    14.807
    Thanks
    5.012
    Thanked
    1.145.973
    cR
    2.927

    Mặc định Ðề: [Viễn Tưởng | 1link ] Power Rangers Samurai (2011) 720p -5 anh em siêu nhân Samurai

    Hình như bác đặt tên tiêu đề sai nên bị del .Bác nên đặt tên như của mình thì ko mới bị del .Nội quy bác à.

    Thấy hay mình lấy link bạn để úp lên Fshare cho mấy thằng nhỏ coi thôi .Mình chỉ úp 6 tập chơi thôi .Ko úp hết 23 tập của bác đâu

  18. 2 người đã cảm ơn xemaydinh


  19. #10
    HD-upscale vilytily's Avatar
    Đăng ký
    30-10-10
    Bài viết
    57
    Thanks
    323
    Thanked
    30
    cR
    59

    Mặc định Ðề: [Viễn Tưởng | 1link ] Power Rangers Samurai (2011) 720p -5 anh em siêu nhân Samurai

    Còn mấy tập còn lai, Up lên cho AE luôn đi xemaydinh, dow ve cho ma'y chu nho'c xem, thanks nhieu

  20. The Following User Says Thank You to vilytily For This Useful Post:


Trang 1/5 1 2 3 ... Cuối cùngCuối cùng

Bookmarks

Quyền Sử Dụng Ở Diễn Ðàn

  • Bạn không được phép viết chủ đề mới
  • Bạn không được phép viết trả lời
  • Bạn không được phép gởi đính kèm
  • Bạn không được phép chỉnh sửa bài viết
  •  
Lên Trên! Xuống Dưới!