Trang 1/2 1 2 Cuối cùngCuối cùng
Kết quả từ 1 tới 10 trên 15
  1. #1
    HD-upscale linh2607's Avatar
    Đăng ký
    24-03-10
    Bài viết
    51
    Thanks
    533
    Thanked
    233
    cR
    205

    Mặc định Hội Ngộ Danh Hài 2014 - Kỳ 1

    Hi Các bạn, cuối tuần rồi, gửi các bạn bản Full khá đẹp, rõ để thư giãn nhé!


    Code:

    Complete name : HoiNgoDanhHai-Ky1-21122013.mpg
    Format : MPEG-PS
    File size : 3.26 GiB
    Duration : 1h 14mn
    Overall bit rate mode : Variable
    Overall bit rate : 6 297 Kbps

    Video
    ID : 224 (0xE0)
    Format : MPEG Video
    Format version : Version 2
    Format profile : Main@Main
    Format settings, BVOP : No
    Format settings, Matrix : Custom
    Format settings, GOP : Variable
    Duration : 1h 14mn
    Bit rate mode : Variable
    Bit rate : 5 948 Kbps
    Maximum bit rate : 8 500 Kbps
    Width : 720 pixels
    Height : 480 pixels
    Display aspect ratio : 4:3
    Frame rate : 29.970 fps
    Standard : NTSC
    Color space : YUV
    Chroma subsampling : 4:2:0
    Bit depth : 8 bits
    Scan type : Interlaced
    Scan order : Top Field First
    Compression mode : Lossy
    Bits/(Pixel*Frame) : 0.574
    Time code of first frame : 00:00:00:00
    Time code source : Group of pictures header
    Stream size : 3.08 GiB (94%)
    Color primaries : BT.601 NTSC
    Transfer characteristics : BT.601
    Matrix coefficients : BT.601

    Audio
    ID : 192 (0xC0)
    Format : MPEG Audio
    Format version : Version 1
    Format profile : Layer 2
    Mode : Joint stereo
    Mode extension : Intensity Stereo + MS Stereo
    Duration : 1h 14mn
    Bit rate mode : Constant
    Bit rate : 224 Kbps
    Channel count : 2 channels
    Sampling rate : 48.0 KHz
    Compression mode : Lossy
    Stream size : 119 MiB (4%)


    HoiNgoDanhHai-Ky1-21122013
    HoiNgoDanhHai-Ky1-21122013 --


    -----------------------------------------------------------------
    Chỉnh sửa nội dung bởi: linh2607, 05-01-2014 lúc 11:47

  2. 115 người đã cảm ơn linh2607


  3. #2
    HD-1080p sbsaobangsb's Avatar
    Đăng ký
    13-08-08
    Bài viết
    1.467
    Thanks
    4.423
    Thanked
    1.245
    cR
    6.319

    Mặc định Ðề: Hội Ngộ Danh Hài 2014 - Kỳ 1

    cho chút thông tin & hình ảnh đi bạn

  4. #3

    Mặc định Ðề: Hội Ngộ Danh Hài 2014 - Kỳ 1

    Bạn cho vài thông tin và hình ảnh để mọi người cùng biết đi. Chứ down về mà chất lượng tồi thì mất công lắm.

  5. #4

    Mặc định Ðề: Hội Ngộ Danh Hài 2014 - Kỳ 1

    3.3Gb chắc cũng xem dc!

  6. #5
    HD-720p le_anh_nhi's Avatar
    Đăng ký
    20-07-12
    Bài viết
    327
    Thanks
    799
    Thanked
    132
    cR
    312

    Mặc định Re: Hội Ngộ Danh Hài 2014 - Kỳ 1

    hình đâu anh????????????????

  7. #6
    HD-upscale linh2607's Avatar
    Đăng ký
    24-03-10
    Bài viết
    51
    Thanks
    533
    Thanked
    233
    cR
    205

    Mặc định Ðề: Hội Ngộ Danh Hài 2014 - Kỳ 1

    đảm bảo hình ảnh đẹp, âm thanh chất lượng cao. Vì mình ko có nhiều time nên share link thôi nha. Vài ữa up hết năm ngoái và up tuần rồi cho mọi người xem.
    Các bạn đã down về xem cứ đưa ra nhận xét cho các bạn khác yên tâm down về.

  8. 3 người đã cảm ơn linh2607


  9. #7
    HD-1080p the_calm_dawn's Avatar
    Đăng ký
    04-02-12
    Bài viết
    1.318
    Thanks
    21
    Thanked
    2.001
    cR
    93

    Mặc định Ðề: Hội Ngộ Danh Hài 2014 - Kỳ 1

    Ít nhất cũng phải có giới thiệu về chương trình này chứ

  10. #8
    HD-upscale linh2607's Avatar
    Đăng ký
    24-03-10
    Bài viết
    51
    Thanks
    533
    Thanked
    233
    cR
    205

    Mặc định Ðề: Hội Ngộ Danh Hài 2014 - Kỳ 1

    trailer thì ngày nào cũng phát, search trên ytb thì ra đầy. Cái này ko dám up lên ytb vì sợ vi phạm bản quyền

  11. The Following User Says Thank You to linh2607 For This Useful Post:


  12. #9
    Digital-2k hang_gom's Avatar
    Đăng ký
    24-08-12
    Bài viết
    2.123
    Thanks
    1.558
    Thanked
    3.740
    cR
    1.169

    Mặc định Ðề: Hội Ngộ Danh Hài 2014 - Kỳ 1

    Giúp bạn 1 phát :
    Code:
    Complete name                  : HoiNgoDanhHai-Ky1-21122013.mpg
    Format                         : MPEG-PS
    File size                      : 3.26 GiB
    Duration                       : 1h 14mn
    Overall bit rate mode          : Variable
    Overall bit rate               : 6 297 Kbps
    
    Video
    ID                             : 224 (0xE0)
    Format                         : MPEG Video
    Format version                 : Version 2
    Format profile                 : Main@Main
    Format settings, BVOP          : No
    Format settings, Matrix        : Custom
    Format settings, GOP           : Variable
    Duration                       : 1h 14mn
    Bit rate mode                  : Variable
    Bit rate                       : 5 948 Kbps
    Maximum bit rate               : 8 500 Kbps
    Width                          : 720 pixels
    Height                         : 480 pixels
    Display aspect ratio           : 4:3
    Frame rate                     : 29.970 fps
    Standard                       : NTSC
    Color space                    : YUV
    Chroma subsampling             : 4:2:0
    Bit depth                      : 8 bits
    Scan type                      : Interlaced
    Scan order                     : Top Field First
    Compression mode               : Lossy
    Bits/(Pixel*Frame)             : 0.574
    Time code of first frame       : 00:00:00:00
    Time code source               : Group of pictures header
    Stream size                    : 3.08 GiB (94%)
    Color primaries                : BT.601 NTSC
    Transfer characteristics       : BT.601
    Matrix coefficients            : BT.601
    
    Audio
    ID                             : 192 (0xC0)
    Format                         : MPEG Audio
    Format version                 : Version 1
    Format profile                 : Layer 2
    Mode                           : Joint stereo
    Mode extension                 : Intensity Stereo + MS Stereo
    Duration                       : 1h 14mn
    Bit rate mode                  : Constant
    Bit rate                       : 224 Kbps
    Channel count                  : 2 channels
    Sampling rate                  : 48.0 KHz
    Compression mode               : Lossy
    Stream size                    : 119 MiB (4%)
    Chỉnh sửa nội dung bởi: hang_gom, 04-01-2014 lúc 23:25

  13. 9 người đã cảm ơn hang_gom


  14. #10
    HD-720p atn's Avatar
    Đăng ký
    01-09-13
    Bài viết
    304
    Thanks
    578
    Thanked
    326
    cR
    738

    Mặc định Ðề: Hội Ngộ Danh Hài 2014 - Kỳ 1

    Links càng huyền bí càng thích, ráng lê lết 3,3gb down về xem thử. Thanks chủ topic, chờ những phần tiếp theo của bạn

Trang 1/2 1 2 Cuối cùngCuối cùng

Tags for this Thread

Bookmarks

Quyền Sử Dụng Ở Diễn Ðàn

  • Bạn không được phép viết chủ đề mới
  • Bạn không được phép viết trả lời
  • Bạn không được phép gởi đính kèm
  • Bạn không được phép chỉnh sửa bài viết
  •  
$ads2ben
Lên Trên! Xuống Dưới!