Trang 1/4 1 2 3 ... Cuối cùngCuối cùng
Kết quả từ 1 tới 10 trên 35
  1. #1
    Banned Uploader
    ledung123's Avatar
    Đăng ký
    31-10-08
    Bài viết
    26.475
    Thanks
    1.512
    Thanked
    2.634.224
    cR
    23.596

    Mặc định [Ca Nhạc Thúy Nga | 1 link ] Paris By Night 104: Beginnings DVD NTSC x264-SDvB

    Chương Trình Ca Nhạc Paris By Night 104 - DVD NTSC x264-SDvB
    Beginnings







    Info Disc 1

    Code:
    Video
    General
    Unique ID                        : 215255461645102775220999222132873034160 (0xA1F0B1A53BE4DE2C8AED7C0317EAF9B0)
    Complete name                    : E:\Paris By Night 104 DVD NTSC x264-SDvB\Disk 1.mkv
    Format                           : Matroska
    File size                        : 2.85 GiB
    Duration                         : 2h 14mn
    Overall bit rate                 : 3 022 Kbps
    Encoded date                     : UTC 2011-12-16 17:07:15
    Writing application              : mkvmerge v4.9.1 ('Ich will') built on Jul 11 2011 23:53:15
    Writing library                  : libebml v1.2.1 + libmatroska v1.1.1
    
    Video
    ID                               : 1
    Format                           : AVC
    Format/Info                      : Advanced Video Codec
    Format profile                   : High@L4.1
    Format settings, CABAC           : Yes
    Format settings, ReFrames        : 9 frames
    Codec ID                         : V_MPEG4/ISO/AVC
    Duration                         : 2h 14mn
    Bit rate                         : 2 066 Kbps
    Width                            : 720 pixels
    Height                           : 480 pixels
    Display aspect ratio             : 16:9
    Original display aspect ratio    : 16:9
    Frame rate                       : 59.940 fps
    Standard                         : NTSC
    Color space                      : YUV
    Chroma subsampling               : 4:2:0
    Bit depth                        : 8 bits
    Scan type                        : Progressive
    Bits/(Pixel*Frame)               : 0.100
    Stream size                      : 1.95 GiB (68%)
    Title                            : All.HDVNbits.Org
    Writing library                  : x264 core 119 r2106 07efeb4
    Encoding settings                : cabac=1 / ref=9 / deblock=1:-1:-1 / analyse=0x3:0x113 / me=umh / subme=9 / psy=1 / psy_rd=1.00:0.00 / mixed_ref=1 / me_range=16 / chroma_me=1 / trellis=2 / 8x8dct=1 / cqm=0 / deadzone=21,11 / fast_pskip=0 / chroma_qp_offset=-2 / threads=12 / sliced_threads=0 / nr=0 / decimate=0 / interlaced=0 / bluray_compat=0 / constrained_intra=0 / bframes=5 / b_pyramid=2 / b_adapt=2 / b_bias=0 / direct=3 / weightb=1 / open_gop=0 / weightp=2 / keyint=250 / keyint_min=25 / scenecut=40 / intra_refresh=0 / rc=crf / mbtree=0 / crf=22.0 / qcomp=0.60 / qpmin=0 / qpmax=69 / qpstep=4 / ip_ratio=1.40 / pb_ratio=1.30 / aq=1:0.90
    Language                         : Vietnamese
    Matrix coefficients              : BT.709-5, BT.1361, IEC 61966-2-4 709, SMPTE RP177
    
    Audio #1
    ID                               : 2
    Format                           : AC-3
    Format/Info                      : Audio Coding 3
    Mode extension                   : CM (complete main)
    Codec ID                         : A_AC3
    Duration                         : 2h 14mn
    Bit rate mode                    : Constant
    Bit rate                         : 448 Kbps
    Channel(s)                       : 6 channels
    Channel positions                : Front: L C R, Side: L R, LFE
    Sampling rate                    : 48.0 KHz
    Bit depth                        : 16 bits
    Compression mode                 : Lossy
    Stream size                      : 433 MiB (15%)
    Title                            : Surround 5.1
    Language                         : Vietnamese
    
    Audio #2
    ID                               : 3
    Format                           : AC-3
    Format/Info                      : Audio Coding 3
    Mode extension                   : CM (complete main)
    Codec ID                         : A_AC3
    Duration                         : 2h 14mn
    Bit rate mode                    : Constant
    Bit rate                         : 448 Kbps
    Channel(s)                       : 2 channels
    Channel positions                : Front: L R
    Sampling rate                    : 48.0 KHz
    Bit depth                        : 16 bits
    Compression mode                 : Lossy
    Stream size                      : 433 MiB (15%)
    Title                            : Stereo 2.0
    Language                         : Vietnamese
    
    Menu
    00:00:00.000                     : :01. Gọi tên mỗi ngày - Như Quỳnh, Minh Tuyết, Tóc Tiên, Kỳ Phương Uyên
    00:06:43.667                     : :02. Lời mở đầu - Ngọc Ngạn, Kỳ Duyên
    00:08:52.834                     : :03. Tình tuyệt diệu - Lưu Bích
    00:18:07.834                     : :04. Mãi một mối tình đầu - Trịnh Lam, Diễm Sương
    00:23:34.134                     : :05. Đố vui khán giả 1 - Ngọc Ngạn, Kỳ Duyên
    00:30:15.735                     : :06. Bắt đầu một kết thúc - Ánh Minh
    00:34:16.269                     : :07. Đố vui khán giả 2 - Ngọc Ngạn, Kỳ Duyên
    00:40:56.836                     : :08. Liên khúc nhạc pháp - Khánh Hà, Elvis Phương
    00:50:31.036                     : :09. Chuyến đò không em - Hạ Vy, Duy Trường
    00:58:42.136                     : :10. Nơi tình yêu bắt đầu - Bằng Kiều, Lam Anh
    01:03:32.370                     : :11. Nhạc sĩ Hoài An
    01:08:20.437                     : :12. Vai chính vai phụ - Tú Quyên
    01:12:05.504                     : :13. Quên đi hạnh phúc ban đầu - Như Loan
    01:18:45.205                     : :14. Vọng cổ: Thiêng liêng tình mẹ - Hương Lan, Hương Thủy
    01:32:07.139                     : :15. Mười năm yêu em - Trần Thái Hòa
    01:41:13.606                     : :16. Thuở ban đầu - Nguyễn Hưng
    01:48:58.706                     : :17. Giấc mơ tuổi hai mươi - Don Hồ
    01:53:05.806                     : :18. Về lại phố xưa - Ngọc Liên
    01:59:03.740                     : :19. LK: Phượng buồn, Kỉ niệm nào buồn - Như Quỳnh, Mạnh Quỳnh
    02:06:09.740                     : :20. Đố vui khán giả 3 - Ngọc Ngạn, Kỳ Duyên
    Info Disc 2

    Code:
    General
    Unique ID                        : 252081318155995969060586948101803921154 (0xBDA5188D470B6704B214E5A1F7ACCF02)
    Complete name                    : E:\Paris By Night 104 DVD NTSC x264-SDvB\Disk 2.mkv
    Format                           : Matroska
    File size                        : 3.01 GiB
    Duration                         : 2h 23mn
    Overall bit rate                 : 3 004 Kbps
    Encoded date                     : UTC 2011-12-16 17:10:36
    Writing application              : mkvmerge v4.9.1 ('Ich will') built on Jul 11 2011 23:53:15
    Writing library                  : libebml v1.2.1 + libmatroska v1.1.1
    
    Video
    ID                               : 1
    Format                           : AVC
    Format/Info                      : Advanced Video Codec
    Format profile                   : High@L4.1
    Format settings, CABAC           : Yes
    Format settings, ReFrames        : 9 frames
    Codec ID                         : V_MPEG4/ISO/AVC
    Duration                         : 2h 23mn
    Bit rate                         : 2 048 Kbps
    Width                            : 720 pixels
    Height                           : 480 pixels
    Display aspect ratio             : 16:9
    Original display aspect ratio    : 16:9
    Frame rate                       : 59.940 fps
    Standard                         : NTSC
    Color space                      : YUV
    Chroma subsampling               : 4:2:0
    Bit depth                        : 8 bits
    Scan type                        : Progressive
    Bits/(Pixel*Frame)               : 0.099
    Stream size                      : 2.05 GiB (68%)
    Title                            : All.HDVNbits.Org
    Writing library                  : x264 core 120 r2120 0c7dab9
    Encoding settings                : cabac=1 / ref=9 / deblock=1:-1:-1 / analyse=0x3:0x113 / me=umh / subme=9 / psy=1 / psy_rd=1.00:0.00 / mixed_ref=1 / me_range=16 / chroma_me=1 / trellis=2 / 8x8dct=1 / cqm=0 / deadzone=21,11 / fast_pskip=0 / chroma_qp_offset=-2 / threads=12 / sliced_threads=0 / nr=0 / decimate=0 / interlaced=0 / bluray_compat=0 / constrained_intra=0 / bframes=5 / b_pyramid=2 / b_adapt=2 / b_bias=0 / direct=3 / weightb=1 / open_gop=0 / weightp=2 / keyint=250 / keyint_min=25 / scenecut=40 / intra_refresh=0 / rc=crf / mbtree=0 / crf=22.0 / qcomp=0.60 / qpmin=0 / qpmax=69 / qpstep=4 / ip_ratio=1.40 / pb_ratio=1.30 / aq=1:0.90
    Language                         : Vietnamese
    Matrix coefficients              : BT.709-5, BT.1361, IEC 61966-2-4 709, SMPTE RP177
    
    Audio #1
    ID                               : 2
    Format                           : AC-3
    Format/Info                      : Audio Coding 3
    Mode extension                   : CM (complete main)
    Codec ID                         : A_AC3
    Duration                         : 2h 23mn
    Bit rate mode                    : Constant
    Bit rate                         : 448 Kbps
    Channel(s)                       : 6 channels
    Channel positions                : Front: L C R, Side: L R, LFE
    Sampling rate                    : 48.0 KHz
    Bit depth                        : 16 bits
    Compression mode                 : Lossy
    Stream size                      : 459 MiB (15%)
    Title                            : Surround 5.1
    Language                         : Vietnamese
    
    Audio #2
    ID                               : 3
    Format                           : AC-3
    Format/Info                      : Audio Coding 3
    Mode extension                   : CM (complete main)
    Codec ID                         : A_AC3
    Duration                         : 2h 23mn
    Bit rate mode                    : Constant
    Bit rate                         : 448 Kbps
    Channel(s)                       : 2 channels
    Channel positions                : Front: L R
    Sampling rate                    : 48.0 KHz
    Bit depth                        : 16 bits
    Compression mode                 : Lossy
    Stream size                      : 459 MiB (15%)
    Title                            : Stereo 2.0
    Language                         : Vietnamese
    
    Menu
    00:00:00.000                     : :01. Hài kịch: Chí Tài, Việt Hương, Thúy Nga, Hoài Tâm, Bằng Kiều
    00:38:53.500                     : :02. Phút đầu tiên - Nguyên Lê, Quỳnh Dung
    00:47:09.468                     : :03. Lần đầu cũng là lần cuối - Khang Việt
    00:52:17.702                     : :04. Ca sĩ Khang Việt
    00:56:05.469                     : :05. Cho tôi lại từ đầu - Quỳnh Vi
    01:00:48.303                     : :06. Về đây nghe em - Khánh Ly, Ngọc Ngạn
    01:09:04.503                     : :07. Trăng mơ bên suối - Ngọc Hạ
    01:15:55.870                     : :08. Hỏi người hỏi tình - Lương Tùng Quang, Kỳ Phương Uyên
    01:22:55.970                     : :09. Ngày xưa anh nói - Quang Lê, Mai Thiên Vân
    01:34:41.770                     : :10. Đừng bỏ em một mình - Hương Giang
    01:38:56.070                     : :11. Nếu một mai em sẽ qua đời - Ngọc Anh
    01:43:21.470                     : :12. Họa sĩ tranh cát Jamie Wardley
    01:48:17.404                     : :13. Giới hạn cuối - Minh Tuyết
    01:52:37.171                     : :14. Đố vui khán giả - Ngọc Ngạn
    02:00:10.772                     : :15. Như chưa bắt đầu - Ý Lan
    02:06:54.172                     : :16. Tình đầu tình cuối - Thế Sơn, Thanh Hà
    02:14:05.239                     : :17. Angel - Mai Tiến Dũng, Tóc Tiên
    02:19:01.439                     : :18. End Credits
    Dành cho các bạn thích các bản dung lượng nhỏ . Có đầy đủ chapter , vì vậy các bạn có thể chọn bài dễ dàng .


    Bạn nhấn nút Thanks, sau đó nhấn F5 để lấy link nhé!



    -----------------------------------------------------------------

  2. 226 người đã cảm ơn ledung123


  3. #2
    HD-upscale trunghieu_st's Avatar
    Đăng ký
    29-11-09
    Bài viết
    33
    Thanks
    74
    Thanked
    25
    cR
    60

    Mặc định Ðề: [Ca Nhạc Thúy Nga | 1 link ] Paris By Night 104: Beginnings DVD NTSC x264-SDvB

    Lại là hàng nóng, thôi em đang kéo bên kia rồi . Thanks bác rất nhiều nhiều...

  4. #3
    HD-720p thanhtam1222's Avatar
    Đăng ký
    12-11-09
    Bài viết
    280
    Thanks
    1.480
    Thanked
    136
    cR
    714

    Mặc định Ðề: [Ca Nhạc Thúy Nga | 1 link ] Paris By Night 104: Beginnings DVD NTSC x264-SDvB

    hàng nóng thansks bác nhiều nha

  5. #4
    UltraHD VThanhgtvt's Avatar
    Đăng ký
    30-12-09
    Bài viết
    22.092
    Thanks
    4.468
    Thanked
    64.012
    cR
    26.173

    Mặc định Ðề: [Ca Nhạc Thúy Nga | 1 link ] Paris By Night 104: Beginnings DVD NTSC x264-SDvB

    Sao bác dung nhà ta lại up nhiểu bản thế nhỉ? Không hiểu sự khác nhau gì nhỉ?

  6. #5
    HD-upscale baythanh's Avatar
    Đăng ký
    08-10-11
    Bài viết
    56
    Thanks
    1.111
    Thanked
    23
    cR
    867

    Mặc định Ðề: [Ca Nhạc Thúy Nga | 1 link ] Paris By Night 104: Beginnings DVD NTSC x264-SDvB

    Mong như mẹ về chợ...
    Thanks bác ledung123 nhìu!!!

  7. #6
    Banned Uploader
    ledung123's Avatar
    Đăng ký
    31-10-08
    Bài viết
    26.475
    Thanks
    1.512
    Thanked
    2.634.224
    cR
    23.596

    Mặc định Ðề: [Ca Nhạc Thúy Nga | 1 link ] Paris By Night 104: Beginnings DVD NTSC x264-SDvB

    Trích Nguyên văn bởi VThanhgtvt Xem bài viết
    Sao bác dung nhà ta lại up nhiểu bản thế nhỉ? Không hiểu sự khác nhau gì nhỉ?
    Bản DVD 9 : Bản gốc
    DVD 5 : Là bản DVD 9 được ép lại
    Re-mux - EPiK : Là bản DVD 9 nhưng bỏ bớt các phần quảng cáo
    Bản DVD NTSC : là bản DVDRip .

    Tùy theo sở thích của mỗi người mà chọn bản thích hợp để download .

  8. #7
    HD-1080i dungngvan's Avatar
    Đăng ký
    16-07-09
    Bài viết
    857
    Thanks
    978
    Thanked
    749
    cR
    669

    Mặc định Ðề: [Ca Nhạc Thúy Nga | 1 link ] Paris By Night 104: Beginnings DVD NTSC x264-SDvB

    Down bản này về xem vì tốc độ down nhanh , bản dvd9 hôm khác tốc độ tốt rồi down lại
    thks bạn ledung nhiều

  9. #8
    Banned Uploader
    ledung123's Avatar
    Đăng ký
    31-10-08
    Bài viết
    26.475
    Thanks
    1.512
    Thanked
    2.634.224
    cR
    23.596

    Mặc định Ðề: [Ca Nhạc Thúy Nga | 1 link ] Paris By Night 104: Beginnings DVD NTSC x264-SDvB

    Trích Nguyên văn bởi dungngvan Xem bài viết
    Down bản này về xem vì tốc độ down nhanh , bản dvd9 hôm khác tốc độ tốt rồi down lại
    thks bạn ledung nhiều
    Mình đã check bản DVD 9, cả 2 link disc 1 và 2 , tốc độ đều max. Bạn thử lại xem sao .

  10. #9
    HD-1080i dungngvan's Avatar
    Đăng ký
    16-07-09
    Bài viết
    857
    Thanks
    978
    Thanked
    749
    cR
    669

    Mặc định Ðề: [Ca Nhạc Thúy Nga | 1 link ] Paris By Night 104: Beginnings DVD NTSC x264-SDvB

    Đúng rồi bạn ạ , dvd9 down tốc độ rất cao , nhưng adsl ở nhà chậm quá nên down rất lâu , down bản dvdrip về xem trước cho đỡ ghiền , Hôm khác lên Cty down dvd9 sau .
    thks bạn ledung rất nhiều

  11. #10
    HD-1080i gioimagic's Avatar
    Đăng ký
    15-06-10
    Bài viết
    511
    Thanks
    2.578
    Thanked
    604
    cR
    454

    Mặc định Ðề: [Ca Nhạc Thúy Nga | 1 link ] Paris By Night 104: Beginnings DVD NTSC x264-SDvB

    Cám ơn bác ledung123 nhiều lắm, hỗm rày đợi mỗi bản này cho nhẹ, mai mốt mún xem đẹp hơn thì em down lun bruray rip

Trang 1/4 1 2 3 ... Cuối cùngCuối cùng

Tags for this Thread

Bookmarks

Quyền Sử Dụng Ở Diễn Ðàn

  • Bạn không được phép viết chủ đề mới
  • Bạn không được phép viết trả lời
  • Bạn không được phép gởi đính kèm
  • Bạn không được phép chỉnh sửa bài viết
  •  
$ads2ben
Lên Trên! Xuống Dưới!