Trang 1/3 1 2 3 Cuối cùngCuối cùng
Kết quả từ 1 tới 10 trên 24
  1. #1
    HD-1080i haiduongbros's Avatar
    Đăng ký
    08-01-11
    Bài viết
    770
    Thanks
    1.949
    Thanked
    4.679
    cR
    728

    Mặc định [ Võ Thuật l 1link]Taichi.2012.HDRip.x264.AC3_JYK - Thái Cực Quyền

    Taichi.2012.HDRip.x264.AC3_JYK - Thái Cực Quyền



    Trong ngôi làng Chen huyền thoại, mọi người đều là bậc thầy về võ thuật. Họ sự dụng sự tinh túy trong võ thuật Tai Chi trong từng khía cạnh cuộc sống. Lu Chan đã tới đây để luyện võ, nhưng dân làng từ chối truyền thụ Tai Chi cho anh ta. Lu chan đã được trải nghiệm môn Tai Chi qua các cuôc thách đấu với dân làng.

    … Nhưng khi 1 người dân làng từ quá khứ trở về, mang theo đầu máy hơi nước cùng với kế hoạch xây dựng đường ray xe lửa xuyên qua ngôi làng bằng mọi giá. Lúc này, dân làng nhận thấy không còn sự lựa chọn nào khác và đặt hết hi vọng vào Lu chan.

    Dưới bàn tay đạo diễn của huyền thoại Sammo Hung, cùng với nhóm làm phim của Ip man, Detective Dee. Tai Chi được hỗ trợ đầy đủ về mọi mặt, thấm nhuần, và các màn dàn dựng về võ thuật sẽ khiến người xem phải bật khỏi ghế.
    Code:
    Format                                   : Matroska
    Format version                           : Version 2
    File size                                : 1.44 GiB
    Duration                                 : 1h 34mn
    Overall bit rate                         : 2 187 Kbps
    Encoded date                             : UTC 2012-11-11 02:47:29
    Writing application                      : mkvmerge v5.6.0 ('Kenya Kane') built on May 27 2012 16:44:04
    Writing library                          : libebml v1.2.3 + libmatroska v1.3.0
    
    Video
    ID                                       : 1
    Format                                   : AVC
    Format/Info                              : Advanced Video Codec
    Format profile                           : High@L4.1
    Format settings, CABAC                   : Yes
    Format settings, ReFrames                : 4 frames
    Codec ID                                 : V_MPEG4/ISO/AVC
    Duration                                 : 1h 34mn
    Bit rate                                 : 2 050 Kbps
    Width                                    : 1 280 pixels
    Height                                   : 546 pixels
    Display aspect ratio                     : 2.35:1
    Frame rate mode                          : Constant
    Frame rate                               : 25.000 fps
    Color space                              : YUV
    Chroma subsampling                       : 4:2:0
    Bit depth                                : 8 bits
    Scan type                                : Progressive
    Bits/(Pixel*Frame)                       : 0.117
    Stream size                              : 1.32 GiB (92%)
    Writing library                          : x264 core 125 r2200bm 999b753
    Default                                  : Yes
    Forced                                   : No
    
    Audio
    ID                                       : 2
    Format                                   : AC-3
    Format/Info                              : Audio Coding 3
    Mode extension                           : CM (complete main)
    Format settings, Endianness              : Big
    Codec ID                                 : A_AC3
    Duration                                 : 1h 34mn
    Bit rate mode                            : Constant
    Bit rate                                 : 128 Kbps
    Channel(s)                               : 2 channels
    Channel positions                        : Front: L R
    Sampling rate                            : 48.0 KHz
    Bit depth                                : 16 bits
    Compression mode                         : Lossy
    Stream size                              : 86.1 MiB (6%)
    Language                                 : Chinese
    Default                                  : Yes
    Forced                                   : No




    Linkdown:

    phụ đề việt : http://v2.subscene.com/vietnamese/ta...le-652811.aspx


    -----------------------------------------------------------------
    Chỉnh sửa nội dung bởi: haiduongbros, 22-11-2012 lúc 09:36

  2. 240 người đã cảm ơn haiduongbros


  3. #2
    HD-upscale chukaleng's Avatar
    Đăng ký
    01-12-11
    Bài viết
    51
    Thanks
    140
    Thanked
    37
    cR
    79

    Mặc định Ðề: [ Võ Thuật l 1link]Taichi.2012.HDRip.x264.AC3_JYK - Thái Cực Quyền

    Đặt gạch, hóng sub.

  4. #3
    HD-upscale love_pad's Avatar
    Đăng ký
    02-10-12
    Bài viết
    25
    Thanks
    115
    Thanked
    21
    cR
    18

    Mặc định Re: [ Võ Thuật l 1link]Taichi.2012.HDRip.x264.AC3_JYK - Thái Cực Quyền

    Thanks. Chờ Sub !

  5. #4
    HD-upscale khanthan's Avatar
    Đăng ký
    18-05-10
    Bài viết
    98
    Thanks
    1.252
    Thanked
    56
    cR
    493

    Mặc định Ðề: [ Võ Thuật l 1link]Taichi.2012.HDRip.x264.AC3_JYK - Thái Cực Quyền

    phim hay nhưng kg coi vì ghét China ha ha

  6. #5
    HD-upscale hiep64's Avatar
    Đăng ký
    12-02-10
    Bài viết
    62
    Thanks
    452
    Thanked
    12
    cR
    53

    Mặc định Ðề: [ Võ Thuật l 1link]Taichi.2012.HDRip.x264.AC3_JYK - Thái Cực Quyền

    cứ đánh võ là thích.. chờ sub. cảm ơn bác chủ !

  7. #6
    HD-upscale chukaleng's Avatar
    Đăng ký
    01-12-11
    Bài viết
    51
    Thanks
    140
    Thanked
    37
    cR
    79

    Mặc định Ðề: [ Võ Thuật l 1link]Taichi.2012.HDRip.x264.AC3_JYK - Thái Cực Quyền

    ---------- Post added 12-11-2012 at 12:44:04 PM ----------

    [/COLOR]
    Trích Nguyên văn bởi khanthan Xem bài viết
    phim hay nhưng kg coi vì ghét China ha ha
    Không coi biết phim hay

  8. #7
    HD-720p daovanhuy's Avatar
    Đăng ký
    05-03-09
    Bài viết
    200
    Thanks
    1.424
    Thanked
    81
    cR
    156

    Mặc định Ðề: [ Võ Thuật l 1link]Taichi.2012.HDRip.x264.AC3_JYK - Thái Cực Quyền

    film này mình xem rạp rồi
    rất hay mà
    chỉ tội bản này lởm thôi
    đợi bản ngon cop về coi lại cho vui
    có phần 2 rồi
    đang chiếu rạp
    phần 3 đang quay thì phải
    HD's fanboy

  9. #8
    HD-720p naythila24's Avatar
    Đăng ký
    12-01-12
    Bài viết
    241
    Thanks
    845
    Thanked
    197
    cR
    316

    Mặc định Ðề: [ Võ Thuật l 1link]Taichi.2012.HDRip.x264.AC3_JYK - Thái Cực Quyền

    Phim này 2 phần đêu mình đều đã xem ở cinema. Rất hay. Lối kể chuyện mới mẻ, lồng ghép giai điệu nhạc lôi cuốn. Rất đáng để thưởng thức hehe.
    Ngạo với nhân gian một tiếng cười...!!!

  10. #9
    HD-1080p boycanada's Avatar
    Đăng ký
    12-10-10
    Bài viết
    1.151
    Thanks
    2.256
    Thanked
    9.004
    cR
    97

    Mặc định Ðề: [ Võ Thuật l 1link]Taichi.2012.HDRip.x264.AC3_JYK - Thái Cực Quyền

    film hay,sub sẽ có sớm

  11. #10
    HD-upscale chukaleng's Avatar
    Đăng ký
    01-12-11
    Bài viết
    51
    Thanks
    140
    Thanked
    37
    cR
    79

    Mặc định Ðề: [ Võ Thuật l 1link]Taichi.2012.HDRip.x264.AC3_JYK - Thái Cực Quyền

    Trích Nguyên văn bởi daovanhuy Xem bài viết
    film này mình xem rạp rồi
    rất hay mà
    chỉ tội bản này lởm thôi
    đợi bản ngon cop về coi lại cho vui
    có phần 2 rồi
    đang chiếu rạp
    phần 3 đang quay thì phải
    Bá đạo vậy sao, mới có phần 1 rạp đã chiếu phần 2 lại còn đang quay phần 3. liệu có phần 4.5.6...n không ta ?

Trang 1/3 1 2 3 Cuối cùngCuối cùng

Bookmarks

Quyền Sử Dụng Ở Diễn Ðàn

  • Bạn không được phép viết chủ đề mới
  • Bạn không được phép viết trả lời
  • Bạn không được phép gởi đính kèm
  • Bạn không được phép chỉnh sửa bài viết
  •  
$ads2ben
Lên Trên! Xuống Dưới!