Kết quả từ 1 tới 1 trên 1
  1. #1
    Digital-4k victor77's Avatar
    Đăng ký
    15-05-09
    Bài viết
    4.525
    Thanks
    3.130
    Thanked
    226.518
    cR
    1.052

    Mặc định [Clip Hài] NCV Films - Bí Chấm Mật . . .?! (Hài Vượng Râu 2011) [VCDrip h264 16:9 MP2 Ste 224 Kbps]

    SS:



    Info:

    General
    Unique ID : 64039603543902992780495443746600973337 (0x302D9439F23AB83020BD4D573906F419)
    Complete name : Bi cham mat 2011 [VCDrip h264 16.9 MP2 Stereo 224 Kbps] - Quoc Anh Vuong Rau & . . ._U.mkv
    Format : Matroska
    Format version : Version 2
    File size : 323 MiB
    Duration : 29mn 4s
    Overall bit rate mode : Constant
    Overall bit rate : 1 555 Kbps
    Movie name : Bi Cham Mat . . .?
    Encoded date : UTC 2013-01-09 20:19:22
    TITLE : Bi Cham Mat . . .?
    COPYRIGHT : NCV Film - 2011
    COMMENT : Encoded by victor77-hdvn
    ARTIST : Quoc Anh Vuong Rau Han Van Tinh & . . .

    Video
    ID : 2
    Format : AVC
    Format/Info : Advanced Video Codec
    Format profile : High@L2.1
    Format settings, CABAC : Yes
    Format settings, ReFrames : 3 frames
    Codec ID : V_MPEG4/ISO/AVC
    Duration : 29mn 4s
    Bit rate mode : Constant
    Bit rate : 1 300 Kbps
    Nominal bit rate : 1 368 Kbps / 1 368 Kbps
    Width : 352 pixels
    Height : 216 pixels
    Display aspect ratio : 16:9
    Frame rate : 25.000 fps
    Standard : NTSC
    Color space : YUV
    Chroma subsampling : 4:2:0
    Bit depth : 8 bits
    Scan type : Progressive
    Bits/(Pixel*Frame) : 0.684
    Stream size : 270 MiB (84%)
    Writing library : x264 core 112
    Default : Yes
    Forced : No

    Audio
    ID : 1
    Format : MPEG Audio
    Format version : Version 1
    Format profile : Layer 2
    Codec ID : A_MPEG/L2
    Codec ID/Hint : MP2
    Duration : 29mn 4s
    Bit rate mode : Constant
    Bit rate : 224 Kbps
    Channel(s) : 2 channels
    Sampling rate : 44.1 KHz
    Compression mode : Lossy
    Stream size : 46.6 MiB (14%)
    Default : Yes
    Forced : No

    Link:

    Bạn nhấn nút Thanks, sau đó nhấn F5 để lấy link nhé!


    -----------------------------------------------------------------


Tags for this Thread

Bookmarks

Quyền Sử Dụng Ở Diễn Ðàn

  • Bạn không được phép viết chủ đề mới
  • Bạn không được phép viết trả lời
  • Bạn không được phép gởi đính kèm
  • Bạn không được phép chỉnh sửa bài viết
  •  
Lên Trên! Xuống Dưới!