Trang 1/3 1 2 3 Cuối cùngCuối cùng
Kết quả từ 1 tới 10 trên 27
  1. #1
    Digital-4k victor77's Avatar
    Đăng ký
    15-05-09
    Bài viết
    4.338
    Thanks
    2.836
    Thanked
    221.372
    cR
    1.001

    Mặc định [Hài Tết] VTV - Gặp Nhau Cuối Năm Xuân 2012 [DVDrip x264 DD2.0 256 Kbps-SDvB]

    SS:



    Info:

    General
    Unique ID : 182029876120842158331806456626249808753 (0x88F1ADCDA9CDF62D8CE93BA57D6D3B71)
    Complete name : Gap Nhau Cuoi Nam Xuan 2012 [DVDripx264DD2.0 256 Kbps-SDvB].mkv
    Format : Matroska
    Format version : Version 4 / Version 2
    File size : 2.61 GiB
    Duration : 3h 17mn
    Overall bit rate : 1 891 Kbps
    Movie name : HDVNbits
    Encoded date : UTC 2013-01-27 04:55:00
    Writing application : mkvmerge v6.0.0 ('Coming Up For Air') built on Jan 20 2013 09:52:00
    Writing library : libebml v1.3.0 + libmatroska v1.4.0

    Video
    ID : 1
    Format : AVC
    Format/Info : Advanced Video Codec
    Format profile : High@L3.1
    Format settings, CABAC : Yes
    Format settings, ReFrames : 10 frames
    Codec ID : V_MPEG4/ISO/AVC
    Duration : 3h 17mn
    Bit rate : 1 597 Kbps
    Width : 700 pixels
    Height : 568 pixels
    Display aspect ratio : 4:3
    Original display aspect ratio : 4:3
    Frame rate : 25.000 fps
    Color space : YUV
    Chroma subsampling : 4:2:0
    Bit depth : 8 bits
    Scan type : Progressive
    Bits/(Pixel*Frame) : 0.161
    Stream size : 2.20 GiB (84%)
    Title : Tao Quan 2012
    Writing library : x264 core 120 r2145 748fe16
    Language : Vietnamese
    Default : Yes
    Forced : No

    Audio
    ID : 2
    Format : AC-3
    Format/Info : Audio Coding 3
    Mode extension : CM (complete main)
    Format settings, Endianness : Big
    Codec ID : A_AC3
    Duration : 3h 17mn
    Bit rate mode : Constant
    Bit rate : 256 Kbps
    Channel(s) : 2 channels
    Channel positions : Front: L R
    Sampling rate : 48.0 KHz
    Bit depth : 16 bits
    Compression mode : Lossy
    Delay relative to video : 64ms
    Stream size : 362 MiB (14%)
    Title : DD2.0 @ 256Kbps
    Language : Vietnamese
    Default : Yes
    Forced : No

    Link:

    Bạn nhấn nút Thanks, sau đó nhấn F5 để lấy link nhé!


    -----------------------------------------------------------------

  2. 218 người đã cảm ơn victor77


  3. #2
    HD-1080i x269's Avatar
    Đăng ký
    16-11-09
    Bài viết
    790
    Thanks
    1.093
    Thanked
    591
    cR
    937

    Mặc định Re: [Hài Tết] VTV - Gặp Nhau Cuối Năm Xuân 2012 [DVDrip x264 DD2.0 256 Kbps-SDvB]

    Cám ơn bác nhiều/ Down về xem tết thôi

  4. #3
    HD-720p h2pro9x's Avatar
    Đăng ký
    19-11-11
    Bài viết
    389
    Thanks
    622
    Thanked
    3.400
    cR
    118

    Mặc định Ðề: [Hài Tết] VTV - Gặp Nhau Cuối Năm Xuân 2012 [DVDrip x264 DD2.0 256 Kbps-SDvB]

    Cứ tưởng 2013...

  5. #4
    HD-1080i x269's Avatar
    Đăng ký
    16-11-09
    Bài viết
    790
    Thanks
    1.093
    Thanked
    591
    cR
    937

    Mặc định Re: [Hài Tết] VTV - Gặp Nhau Cuối Năm Xuân 2012 [DVDrip x264 DD2.0 256 Kbps-SDvB]

    Xem lại cũng vui mà hiiii

  6. #5
    HD-1080p the_calm_dawn's Avatar
    Đăng ký
    04-02-12
    Bài viết
    1.290
    Thanks
    20
    Thanked
    1.886
    cR
    166

    Mặc định Ðề: [Hài Tết] VTV - Gặp Nhau Cuối Năm Xuân 2012 [DVDrip x264 DD2.0 256 Kbps-SDvB]

    2013 ngoài cửa hàng bán đĩa có rồi

  7. #6
    HD-720p vietkhanhhuy's Avatar
    Đăng ký
    20-01-10
    Bài viết
    275
    Thanks
    951
    Thanked
    9.942
    cR
    726

    Mặc định Ðề: [Hài Tết] VTV - Gặp Nhau Cuối Năm Xuân 2012 [DVDrip x264 DD2.0 256 Kbps-SDvB]

    Trích Nguyên văn bởi the_calm_dawn Xem bài viết
    2013 ngoài cửa hàng bán đĩa có rồi
    Mong bác nào nhiệt tình up cho AE copy với.Thanks trước nhé..

  8. #7
    Digital-4k victor77's Avatar
    Đăng ký
    15-05-09
    Bài viết
    4.338
    Thanks
    2.836
    Thanked
    221.372
    cR
    1.001

    Mặc định Re: [Hài Tết] VTV - Gặp Nhau Cuối Năm Xuân 2012 [DVDrip x264 DD2.0 256 Kbps-SDvB]

    Đã đưa lên Gặp nhau cuối năm Xuân 2009 2010 2011 2012. Bác nào quan tâm vào chữ ký của mình lấy về nhé!

    Thanks!

  9. #8
    HD-720p trungng's Avatar
    Đăng ký
    10-12-09
    Bài viết
    278
    Thanks
    486
    Thanked
    138
    cR
    417

    Mặc định Re: [Hài Tết] VTV - Gặp Nhau Cuối Năm Xuân 2012 [DVDrip x264 DD2.0 256 Kbps-SDvB]

    Bác nào có 2013 up lên cho anh em down với.

  10. #9
    HD-1080p hoadainhan70's Avatar
    Đăng ký
    11-12-09
    Bài viết
    1.158
    Thanks
    1.040
    Thanked
    538
    cR
    581

    Mặc định Ðề: [Hài Tết] VTV - Gặp Nhau Cuối Năm Xuân 2012 [DVDrip x264 DD2.0 256 Kbps-SDvB]

    đĩa mờ lắm ! có một bộ gồm 6 cái VCD toàn quảng cáo thuốc tăng lực đàn ông thôi

  11. #10
    Digital-4k victor77's Avatar
    Đăng ký
    15-05-09
    Bài viết
    4.338
    Thanks
    2.836
    Thanked
    221.372
    cR
    1.001

    Mặc định Re: Ðề: [Hài Tết] VTV - Gặp Nhau Cuối Năm Xuân 2012 [DVDrip x264 DD2.0 256 Kbps-SDvB]

    Trích Nguyên văn bởi hoadainhan70 Xem bài viết
    đĩa mờ lắm ! có một bộ gồm 6 cái VCD toàn quảng cáo thuốc tăng lực đàn ông thôi
    Bạn đang nói về cái nào vậy? Bạn đã down về chưa? Cái này là source DVD đấy ạ

Trang 1/3 1 2 3 Cuối cùngCuối cùng

Tags for this Thread

Bookmarks

Quyền Sử Dụng Ở Diễn Ðàn

  • Bạn không được phép viết chủ đề mới
  • Bạn không được phép viết trả lời
  • Bạn không được phép gởi đính kèm
  • Bạn không được phép chỉnh sửa bài viết
  •  
Lên Trên! Xuống Dưới!