Kết quả từ 1 tới 2 trên 2
  1. #1
    Digital-2k victor77's Avatar
    Đăng ký
    15-05-09
    Bài viết
    3.848
    Thanks
    2.606
    Thanked
    210.254
    cR
    919

    Mặc định [Phim Hài] - Hồ Gươm AV - Kiếp Lông Bông (Hài Chiến Thắng 2012) [DVDrip h264 DD2.0 SDvB]

    SS:



    Info:

    General
    Unique ID : 235910086589251083795074992137518959388 (0xB17AA147522E82C281C3AB0FCA2FCB1C)
    Complete name : Kiep Long Bong (Hai Chien Thang 2012) [DVDrip h264 DD2.0 224Kbps].mkv
    Format : Matroska
    Format version : Version 2
    File size : 748 MiB
    Duration : 1h 1mn
    Overall bit rate : 1 696 Kbps
    Movie name : Hài Tết 2012 Chiến Thắng: Kiếp Lông Bông - Zer0 @ SDvB
    Encoded date : UTC 2011-12-30 09:58:13
    Writing application : mkvmerge v5.2.0 ('I can't explain') built on Dec 18 2011 18:12:03
    Writing library : libebml v1.2.3 + libmatroska v1.3.0

    Video
    ID : 1
    Format : AVC
    Format/Info : Advanced Video Codec
    Format profile : High@L3.1
    Format settings, CABAC : Yes
    Format settings, ReFrames : 11 frames
    Codec ID : V_MPEG4/ISO/AVC
    Duration : 1h 1mn
    Bit rate : 1 439 Kbps
    Width : 720 pixels
    Height : 444 pixels
    Display aspect ratio : 1.730
    Frame rate : 25.000 fps
    Color space : YUV
    Chroma subsampling : 4:2:0
    Bit depth : 8 bits
    Scan type : Progressive
    Bits/(Pixel*Frame) : 0.180
    Stream size : 634 MiB (85%)
    Writing library : x264 core 120 r2120 0c7dab9
    Language : Vietnamese
    Default : Yes
    Forced : No

    Audio
    ID : 2
    Format : AC-3
    Format/Info : Audio Coding 3
    Mode extension : CM (complete main)
    Format settings, Endianness : Big
    Codec ID : A_AC3
    Duration : 1h 1mn
    Bit rate mode : Constant
    Bit rate : 224 Kbps
    Channel(s) : 2 channels
    Channel positions : Front: L R
    Sampling rate : 48.0 KHz
    Bit depth : 16 bits
    Compression mode : Lossy
    Stream size : 98.8 MiB (13%)
    Language : Vietnamese
    Default : Yes
    Forced : No

    Link:

    Bạn nhấn nút Thanks, sau đó nhấn F5 để lấy link nhé!


    -----------------------------------------------------------------


  2. #2
    HD-upscale muta's Avatar
    Đăng ký
    17-11-11
    Bài viết
    35
    Thanks
    329
    Thanked
    12
    cR
    160

    Mặc định Ðề: [Phim Hài] - Hồ Gươm AV - Kiếp Lông Bông (Hài Chiến Thắng 2012) [DVDrip h264 DD2.0 SDvB]

    cảm ơn chủ thớt

Tags for this Thread

Bookmarks

Quyền Sử Dụng Ở Diễn Ðàn

  • Bạn không được phép viết chủ đề mới
  • Bạn không được phép viết trả lời
  • Bạn không được phép gởi đính kèm
  • Bạn không được phép chỉnh sửa bài viết
  •  
Lên Trên! Xuống Dưới!