Kết quả từ 1 tới 2 trên 2
  1. #1
    HD-upscale bibi_luv_bobo's Avatar
    Đăng ký
    03-08-12
    Bài viết
    85
    Thanks
    53
    Thanked
    3.843
    cR
    3

    Red face Gặp nhau cuối năm DVD TVRIP PACK (2003-2013)





    Info: [CENTER]
    Code:
    General
    Format                           : AVI
    Format/Info                      : Audio Video Interleave
    File size                        : 909 MiB
    Duration                         : 1h 26mn
    Overall bit rate                 : 1 467 Kbps
    
    Video
    ID                               : 0
    Format                           : MPEG-4 Visual
    Format profile                   : Advanced Simple@L5
    Format settings, BVOP            : Yes
    Format settings, QPel            : No
    Format settings, GMC             : No warppoints
    Format settings, Matrix          : Default (H.263)
    Muxing mode                      : Packed bitstream
    Codec ID                         : XVID
    Codec ID/Hint                    : XviD
    Duration                         : 1h 26mn
    Bit rate                         : 1 296 Kbps
    Width                            : 720 pixels
    Height                           : 576 pixels
    Display aspect ratio             : 5:4
    Frame rate                       : 25.000 fps
    Standard                         : PAL
    Color space                      : YUV
    Chroma subsampling               : 4:2:0
    Bit depth                        : 8 bits
    Scan type                        : Progressive
    Compression mode                 : Lossy
    Bits/(Pixel*Frame)               : 0.125
    Stream size                      : 803 MiB (88%)
    Writing library                  : XviD 1.1.2 (UTC 2006-11-01)
    
    Audio
    ID                               : 1
    Format                           : MPEG Audio
    Format version                   : Version 1
    Format profile                   : Layer 3
    Codec ID                         : 55
    Codec ID/Hint                    : MP3
    Duration                         : 1h 26mn
    Bit rate mode                    : Constant
    Bit rate                         : 160 Kbps
    Channel(s)                       : 2 channels
    Sampling rate                    : 48.0 KHz
    Compression mode                 : Lossy
    Video delay                      : 24ms
    Stream size                      : 99.2 MiB (11%)
    Alignment                        : Split accross interleaves
    Interleave, duration             : 33 ms (0.83 video frame)
    Interleave, preload duration     : 45 ms
    Title                            : Audio Stream
    Trailer:


    1 LINK

    Bạn nhấn nút Thanks, sau đó nhấn F5 để lấy link nhé!



    -----------------------------------------------------------------

  2. 127 người đã cảm ơn bibi_luv_bobo


  3. #2

    Mặc định Re: Gặp nhau cuối năm DVD TVRIP PACK (2003-2013)

    Mấy folder đầu chất lượng kém quá, có bản nào tốt hơn không?

Tags for this Thread

Bookmarks

Quyền Sử Dụng Ở Diễn Ðàn

  • Bạn không được phép viết chủ đề mới
  • Bạn không được phép viết trả lời
  • Bạn không được phép gởi đính kèm
  • Bạn không được phép chỉnh sửa bài viết
  •  
$ads2ben
Lên Trên! Xuống Dưới!