Kết quả từ 1 tới 1 trên 1
  1. #1
    Digital-4k victor77's Avatar
    Đăng ký
    15-05-09
    Bài viết
    4.652
    Thanks
    3.267
    Thanked
    233.227
    cR
    1.083

    Mặc định [Hài Kịch] TNPBN107 - Thể Dục Thẩm Mỹ [DVDrip h264 DD5.1] - Hoài Tâm Chí Tài Việt Hương Thuý Nga & . . .

    SS:



    Info:

    General
    Unique ID : 219643642696138499896472436336604392961 (0xA53DD3ACDA622FF98E181BC5302AAE01)
    Complete name : The duc tham my [DVDrip H264 DD5.1] - TNPBN107.mkv
    Format : Matroska
    Format version : Version 4 / Version 2
    File size : 596 MiB
    Duration : 33mn 4s
    Overall bit rate mode : Variable
    Overall bit rate : 2 518 Kbps
    Encoded date : UTC 2013-03-18 09:21:03
    Writing application : mkvmerge v6.1.0 ('Old Devil') built on Mar 2 2013 14:32:37
    Writing library : libebml v1.3.0 + libmatroska v1.4.0

    Video
    ID : 2
    Format : AVC
    Format/Info : Advanced Video Codec
    Format profile : High@L4.1
    Format settings, CABAC : Yes
    Format settings, ReFrames : 3 frames
    Codec ID : V_MPEG4/ISO/AVC
    Duration : 33mn 4s
    Bit rate mode : Variable
    Bit rate : 2 068 Kbps
    Maximum bit rate : 40.0 Mbps
    Width : 720 pixels
    Height : 400 pixels
    Display aspect ratio : 16:9
    Frame rate : 29.970 fps
    Color space : YUV
    Chroma subsampling : 4:2:0
    Bit depth : 8 bits
    Scan type : Progressive
    Bits/(Pixel*Frame) : 0.240
    Stream size : 478 MiB (80%)
    Writing library : x264 core 129 r2245 bc13772
    Language : English
    Default : Yes
    Forced : No

    Audio
    ID : 1
    Format : AC-3
    Format/Info : Audio Coding 3
    Mode extension : CM (complete main)
    Format settings, Endianness : Big
    Codec ID : A_AC3
    Duration : 33mn 4s
    Bit rate mode : Constant
    Bit rate : 448 Kbps
    Channel(s) : 6 channels
    Channel positions : Front: L C R, Side: L R, LFE
    Sampling rate : 48.0 KHz
    Bit depth : 16 bits
    Compression mode : Lossy
    Stream size : 106 MiB (18%)
    Default : Yes
    Forced : No

    Link:

    Bạn nhấn nút Thanks, sau đó nhấn F5 để lấy link nhé!


    -----------------------------------------------------------------


Tags for this Thread

Bookmarks

Quyền Sử Dụng Ở Diễn Ðàn

  • Bạn không được phép viết chủ đề mới
  • Bạn không được phép viết trả lời
  • Bạn không được phép gởi đính kèm
  • Bạn không được phép chỉnh sửa bài viết
  •  
$ads2ben
Lên Trên! Xuống Dưới!