Kết quả từ 1 tới 10 trên 10
  1. #1
    HD-1080p nhoc_romeo's Avatar
    Đăng ký
    22-08-09
    Bài viết
    1.104
    Thanks
    8.409
    Thanked
    2.360
    cR
    1.087

    Mặc định [Hài-1 link FS]Hoài Linh liveshow 6: Gã lưu manh và chàng khờ

    Screen_Shot_2013-04-17_at_3.11.30_PM.png


    Code:
    Gã Lưu Manh Và Chàng Khờ 
    Chí Tài - Hoài Linh - Việt Hương 
     
    1. Thằng Bờm Nhóm Múa ABC Kios 
    2. Lời Chưa Nói Phương Thanh 
    3. Kịch "Kẻ Lưu Manh Và Chàng Khờ Hoài Linh - Chí Tài 
    4. Ngày Vui Qua Mau Cẩm Ly 
    5. Ghét Anh Giận Anh Cẩm Ly 
    6. Kịch "Ngọc Nhãn Long" Hoài Linh - Chí Tài - Việt Hương 
    7. Mãi Mãi Bên Em Dương Triệu Vũ 
    8. Người Về Từ Lòng Đất Dương Triệu Vũ & Vũ Đoàn Bước Nhảy 
    9. Kịch "Quê Chúng Ta" Hoài Linh - Chí Tài - Thanh Hằng 
    10. Kịch "Trộm" Hoài Linh - Cát Phượng - Long Đẹp Trai 
    11. My Love Lý Hải & Vũ Đoàn Hoàng Thông 
    12. Kịch "Số Phận" Hoài Linh - Chí Tài

    Code:
    General Complete name : H:\G- l-u manh và chàng kh-\Gã lưu manh và chàng khờ 1.FLV Format : Flash Video File size : 156 MiB Duration : 22mn 32s Overall bit rate : 966 Kbps httphostheader : r2---sn-42u-nbod.c.youtube.com Video Format : AVC Format/Info : Advanced Video Codec Format profile : Main@L3.1 Format settings, CABAC : Yes Format settings, ReFrames : 3 frames Format settings, GOP : M=1, N=60 Codec ID : 7 Duration : 22mn 32s Bit rate : 829 Kbps Width : 854 pixels Height : 480 pixels Display aspect ratio : 16:9 Frame rate mode : Constant Frame rate : 29.970 fps Color space : YUV Chroma subsampling : 4:2:0 Bit depth : 8 bits Scan type : Progressive Bits/(Pixel*Frame) : 0.067 Stream size : 134 MiB (86%) Audio Format : AAC Format/Info : Advanced Audio Codec Format profile : LC Codec ID : 10 Duration : 22mn 33s Bit rate : 129 Kbps Channel(s) : 2 channels Channel positions : Front: L R Sampling rate : 44.1 KHz Compression mode : Lossy Stream size : 20.8 MiB (13%)
    Bạn nhấn nút Thanks, sau đó nhấn F5 để lấy link nhé!

    pass: hdmovie.vn


    -----------------------------------------------------------------
    Chỉnh sửa nội dung bởi: nhoc_romeo, 07-05-2013 lúc 10:21 Lý do: update thông tin

  2. 847 người đã cảm ơn nhoc_romeo


  3. #2
    HD-upscale danglqd's Avatar
    Đăng ký
    09-01-12
    Bài viết
    69
    Thanks
    657
    Thanked
    31
    cR
    201

    Mặc định Ðề: [Hài-1 link FS]Hoài Linh liveshow 6: Gã lưu manh và chàng khờ

    có hoài linh liveshow 5 không bác

  4. 2 người đã cảm ơn danglqd


  5. #3
    HD-720p zabuza1997's Avatar
    Đăng ký
    21-11-12
    Bài viết
    271
    Thanks
    2.009
    Thanked
    108
    cR
    411

    Mặc định Re: [Hài-1 link FS]Hoài Linh liveshow 6: Gã lưu manh và chàng khờ

    quá đã!!!!!!!!!!!!

  6. 2 người đã cảm ơn zabuza1997


  7. #4
    HD-1080p nhoc_romeo's Avatar
    Đăng ký
    22-08-09
    Bài viết
    1.104
    Thanks
    8.409
    Thanked
    2.360
    cR
    1.087

    Mặc định Ðề: [Hài-1 link FS]Hoài Linh liveshow 6: Gã lưu manh và chàng khờ

    Trích Nguyên văn bởi danglqd Xem bài viết
    có hoài linh liveshow 5 không bác
    Link của bác ledung123:
    Bạn nhấn nút Thanks, sau đó nhấn F5 để lấy link nhé!

  8. 226 người đã cảm ơn nhoc_romeo


  9. #5
    HD-1080i sonkhte's Avatar
    Đăng ký
    21-03-13
    Bài viết
    667
    Thanks
    1.012
    Thanked
    2.200
    cR
    162

    Mặc định Re: [Hài-1 link FS]Hoài Linh liveshow 6: Gã lưu manh và chàng khờ

    kéo cái này về xem đỡ buồn, thank chủ thớt

  10. The Following User Says Thank You to sonkhte For This Useful Post:


  11. #6
    Digital-2k solomine's Avatar
    Đăng ký
    02-01-10
    Bài viết
    2.282
    Thanks
    2.182
    Thanked
    2.004
    cR
    1.275

    Mặc định Ðề: [Hài-1 link FS]Hoài Linh liveshow 6: Gã lưu manh và chàng khờ

    Bản này là sao nhỉ? Rip hay DVDRip hay DVD gốc nhỉ? E thấy dung lượng chỉ 1,1Gb? Bác chủ cho e xin ít thông tin nhé. Tks

  12. The Following User Says Thank You to solomine For This Useful Post:


  13. #7
    HD-720p colsoul302's Avatar
    Đăng ký
    16-10-10
    Bài viết
    139
    Thanks
    902
    Thanked
    64
    cR
    184

    Mặc định Ðề: [Hài-1 link FS]Hoài Linh liveshow 6: Gã lưu manh và chàng khờ

    Toàn là file flv không ah

  14. The Following User Says Thank You to colsoul302 For This Useful Post:


  15. #8

    Mặc định Ðề: [Hài-1 link FS]Hoài Linh liveshow 6: Gã lưu manh và chàng khờ

    Cảm ơn!thanks...

  16. #9
    HD-upscale cukhoainuong3003's Avatar
    Đăng ký
    04-05-10
    Bài viết
    59
    Thanks
    557
    Thanked
    34
    cR
    194

    Mặc định Ðề: [Hài-1 link FS]Hoài Linh liveshow 6: Gã lưu manh và chàng khờ

    phần này vui thank bác

  17. #10
    HD-upscale vtkhoi's Avatar
    Đăng ký
    29-01-10
    Bài viết
    20
    Thanks
    104
    Thanked
    5
    cR
    22

    Mặc định Ðề: [Hài-1 link FS]Hoài Linh liveshow 6: Gã lưu manh và chàng khờ

    khoái Hoài Linh, thanks bác

Bookmarks

Quyền Sử Dụng Ở Diễn Ðàn

  • Bạn không được phép viết chủ đề mới
  • Bạn không được phép viết trả lời
  • Bạn không được phép gởi đính kèm
  • Bạn không được phép chỉnh sửa bài viết
  •  
Lên Trên! Xuống Dưới!