Kết quả từ 1 tới 2 trên 2
  1. #1
    HD-upscale tucamthanh's Avatar
    Đăng ký
    09-06-10
    Bài viết
    66
    Thanks
    290
    Thanked
    137
    cR
    160

    Mặc định [Trung tâm Asia|Ca Nhạc| DVD-RIP | MKV | 1 link] Asia 73 - Mùa Hè Rực Rỡ 2013

    Chương Trình Ca nhạc Asia 73
    Mùa Hè Rực Rỡ 2013
    Bản rip từ DVD 9



    MEDIA INFO

    Code:
    General
    Unique ID                                : 253038859914709526747186690576118029251 (0xBE5D83016A212FBDA8A0DBC3D2F99BC3)
    Complete name                            : C:\Documents and Settings\NMT\My Documents\ASIA73_DVDRIP_D1.mkv
    Format                                   : Matroska
    Format version                           : Version 4 / Version 2
    File size                                : 1.74 GiB
    Duration                                 : 1h 39mn
    Overall bit rate                         : 2 498 Kbps
    Encoded date                             : UTC 2013-12-08 14:18:10
    Writing application                      : mkvmerge v6.1.0 ('Old Devil') built on Mar  2 2013 14:32:37
    Writing library                          : libebml v1.3.0 + libmatroska v1.4.0
    
    Video
    ID                                       : 1
    Format                                   : AVC
    Format/Info                              : Advanced Video Codec
    Format profile                           : High@L3.0
    Format settings, CABAC                   : Yes
    Format settings, ReFrames                : 4 frames
    Codec ID                                 : V_MPEG4/ISO/AVC
    Duration                                 : 1h 39mn
    Bit rate                                 : 1 600 Kbps
    Width                                    : 720 pixels
    Height                                   : 400 pixels
    Display aspect ratio                     : 16:9
    Frame rate mode                          : Constant
    Frame rate                               : 29.970 fps
    Color space                              : YUV
    Chroma subsampling                       : 4:2:0
    Bit depth                                : 8 bits
    Scan type                                : Progressive
    Bits/(Pixel*Frame)                       : 0.185
    Stream size                              : 1.08 GiB (62%)
    Writing library                          : x264 core 133 r2334 a3ac64b
    Encoding settings                        : cabac=1 / ref=2 / deblock=1:0:0 / analyse=0x3:0x113 / me=hex / subme=4 / psy=1 / psy_rd=1.00:0.00 / mixed_ref=0 / me_range=16 / chroma_me=1 / trellis=1 / 8x8dct=1 / cqm=0 / deadzone=21,11 / fast_pskip=1 / chroma_qp_offset=0 / threads=3 / lookahead_threads=1 / sliced_threads=0 / nr=0 / decimate=1 / interlaced=0 / bluray_compat=0 / constrained_intra=0 / bframes=3 / b_pyramid=2 / b_adapt=1 / b_bias=0 / direct=1 / weightb=1 / open_gop=0 / weightp=1 / keyint=300 / keyint_min=29 / scenecut=40 / intra_refresh=0 / rc_lookahead=20 / rc=2pass / mbtree=1 / bitrate=1600 / ratetol=1.0 / qcomp=0.60 / qpmin=0 / qpmax=69 / qpstep=4 / cplxblur=20.0 / qblur=0.5 / ip_ratio=1.40 / aq=1:1.00
    Language                                 : English
    Default                                  : Yes
    Forced                                   : No
    
    Audio #1
    ID                                       : 2
    Format                                   : AC-3
    Format/Info                              : Audio Coding 3
    Mode extension                           : CM (complete main)
    Format settings, Endianness              : Big
    Codec ID                                 : A_AC3
    Duration                                 : 1h 39mn
    Bit rate mode                            : Constant
    Bit rate                                 : 448 Kbps
    Channel count                            : 6 channels
    Channel positions                        : Front: L C R, Side: L R, LFE
    Sampling rate                            : 48.0 KHz
    Bit depth                                : 16 bits
    Compression mode                         : Lossy
    Stream size                              : 320 MiB (18%)
    Default                                  : Yes
    Forced                                   : No
    
    Audio #2
    ID                                       : 3
    Format                                   : AC-3
    Format/Info                              : Audio Coding 3
    Mode extension                           : CM (complete main)
    Format settings, Endianness              : Big
    Codec ID                                 : A_AC3
    Duration                                 : 1h 39mn
    Bit rate mode                            : Constant
    Bit rate                                 : 448 Kbps
    Channel count                            : 2 channels
    Channel positions                        : Front: L R
    Sampling rate                            : 48.0 KHz
    Bit depth                                : 16 bits
    Compression mode                         : Lossy
    Stream size                              : 320 MiB (18%)
    Default                                  : No
    Forced                                   : No
    
    Menu
    00:00:00.000                             : :Chapter 01
    00:02:56.400                             : :Chapter 02
    00:04:56.734                             : :Chapter 03
    00:10:29.501                             : :Chapter 04
    00:14:50.469                             : :Chapter 05
    00:18:57.270                             : :Chapter 06
    00:20:38.904                             : :Chapter 07
    00:24:28.104                             : :Chapter 08
    00:26:26.304                             : :Chapter 09
    00:34:28.804                             : :Chapter 10
    00:36:31.038                             : :Chapter 11
    00:40:38.272                             : :Chapter 12
    00:47:46.305                             : :Chapter 13
    00:51:52.972                             : :Chapter 14
    00:54:04.140                             : :Chapter 15
    00:59:04.108                             : :Chapter 16
    01:00:47.175                             : :Chapter 17
    01:07:25.776                             : :Chapter 18
    01:10:15.510                             : :Chapter 19
    01:19:24.810                             : :Chapter 20
    01:23:29.277                             : :Chapter 21
    01:31:51.878                             : :Chapter 22
    01:34:49.645                             : :Chapter 23
    DISC1 : http://www.fshare.vn/file/T4P5MFK5ZT/
    DISC2 : http://www.fshare.vn/file/TYN5SRVJCT/


    -----------------------------------------------------------------
    Chỉnh sửa nội dung bởi: tucamthanh, 25-01-2014 lúc 22:56 Lý do: up


  2. #2
    HD-720p nguoi_o_layyy's Avatar
    Đăng ký
    28-12-12
    Bài viết
    414
    Thanks
    852
    Thanked
    413
    cR
    57

    Mặc định Re: [Trung tâm Asia|Ca Nhạc| DVD-RIP | MKV | 1 link] Asia 73 - Mùa Hè Rực Rỡ 2013

    Bạn ơi sao Height : 400 pixels mà ko phải là 480pixels?

  3. The Following User Says Thank You to nguoi_o_layyy For This Useful Post:


Tags for this Thread

Bookmarks

Quyền Sử Dụng Ở Diễn Ðàn

  • Bạn không được phép viết chủ đề mới
  • Bạn không được phép viết trả lời
  • Bạn không được phép gởi đính kèm
  • Bạn không được phép chỉnh sửa bài viết
  •  
$ads2ben
Lên Trên! Xuống Dưới!