Kết quả từ 1 tới 1 trên 1
  1. #1
    ╰☆╮Tayßé╭☆╯ ★HDVietNam®★ Uploader
    cutyhamchoi98's Avatar
    Đăng ký
    30-01-12
    Bài viết
    2.676
    Thanks
    2.530
    Thanked
    75.512
    cR
    1.708

    Mặc định [DVD5 - Ca Nhạc – Hài Kịch] Paris By Night 110 | Phát Lộc Đầu Năm 2014

    Chương Trình Ca nhạc Paris By Night 110
    Phát Lộc Đầu Năm 2014
    [DVD5 - Ca Nhạc – Hài Kịch]
    (Bảo Quốc, Việt Hương, Thúy Nga, Hoài Tâm, Duy Trường, Nguyên Khoa…)




    1. Đón Xuân - Ánh Minh - Justin Nguyễn
    2. Đồn Vắng Chiều Xuân - Thế Sơn
    3. Hà Nội Mười Hai Mùa Hoa - Thu Phương
    4. Giai Điệu Mùa Xuân - Trịnh Lam & Lam Anh)
    5. Chúc Mừng Xuân - Lương Tùnh Quang & Quỳnh Vi
    6. LK Mùa Xuân Trên Cao - Mạnh Quỳnh / Mùa Xuân Đó Có Em - Khánh Lâm / Cảm Ơn - Tuấn Vũ
    7. Gửi Người Em Gái - Bằng Kiều
    8. Mùa Xuân Hoa Đào - Mai Thiên Vân
    9. Chấp Nhận - Hương Lan & Thái Châu
    10. Mùa Xuân Của Mẹ - Quang Lê
    11. Mùa Xuân Bên Nhau - Quang Hiếu
    12. Hài Kịch - Hoài Linh & Chí Tài
    13. Xuân Yêu Thương - Như Loan
    14. Mùa Xuân Xôn Xao - Hạ Vy & Duy Trường
    15. Mỗi Mùa Xuân Về Lại Thêm Một Lần Dối Mẹ - Bảo Khánh
    16. Nàng Xuân Của Tôi - Trần Thái Hòa
    17. Mùa Xuân Gửi Em - Như Quỳnh
    18. Chúc Xuân - Don Hồ
    19. Hài Kịch "Ông Táo Chầu Trời" - Bảo Quốc, Việt Hương, Thúy Nga, Hoài Tâm, Duy Trường, Nguyên Khoa
    20. Hoa Xuân - Lam Anh & Thiên Tôn
    21. Lúng La Lúng Liếng Xuân - Anh Tú
    22. Mùa Xuân Không Còn Nữa - Ngọc Anh
    23. Tết Xuân - Thanh Hà & Đình Bảo
    24. Xuân Về Nhớ Tết Năm Nay - Tóc Tiên & Hương Thủy
    25. Hỏi Nàng Xuân - Minh Tuyết
    26. Gái Xuân - Ý Lan
    27. Khúc Xuân - Mai Tiến Dũng - Diễm Sương
    28. Phút Giao Thừa Diệu Êm - Trịnh Lam, Đình Bảo, Thiên Tôn, Trần Thái Hòa, Thanh Hà, Tóc Tiên, Quỳnh Vi, Ngọc Anh

    Videos Bonuses
    1. Nhịp Bước Ngày Xuân - Toc Tien & Mai Tiến Dũng
    2. Mơ - Ánh Minh
    3. Vắng Anh Mùa Đông - Như Loan
    4. Đón Xuân này Nhớ Xuân Xưa - Lưu Ngọc Hà
    5. Behind the Scenes



    Code:
    Paris.By.Night.110.Phat.Loc.Dau.Nam.DVD5.Remux.mkv
    Format                                   : Matroska
    Format version                           : Version 2
    File size                                : 9.97 GiB
    Duration                                 : 5h 12mn
    Overall bit rate mode                    : Variable
    Overall bit rate                         : 4 574 Kbps
    Encoded date                             : UTC 2014-01-26 10:11:03
    Writing application                      : mkvmerge v5.8.0 ('No Sleep / Pillow') built on Sep  2 2012 15:37:04
    Writing library                          : libebml v1.2.3 + libmatroska v1.3.0
    
    Video
    ID                                       : 1
    Format                                   : MPEG Video
    Format version                           : Version 2
    Format profile                           : Main@Main
    Format settings, BVOP                    : No
    Format settings, Matrix                  : Custom
    Codec ID                                 : V_MPEG2
    Codec ID/Info                            : MPEG 1 or 2 Video
    Duration                                 : 5h 12mn
    Bit rate mode                            : Variable
    Bit rate                                 : 3 587 Kbps
    Maximum bit rate                         : 9 800 Kbps
    Width                                    : 720 pixels
    Height                                   : 480 pixels
    Display aspect ratio                     : 16:9
    Original display aspect ratio            : 16:9
    Frame rate                               : 29.970 fps
    Standard                                 : NTSC
    Color space                              : YUV
    Chroma subsampling                       : 4:2:0
    Bit depth                                : 8 bits
    Scan type                                : Interlaced
    Scan order                               : Bottom Field First
    Compression mode                         : Lossy
    Bits/(Pixel*Frame)                       : 0.346
    Stream size                              : 7.82 GiB (78%)
    Language                                 : English
    Default                                  : No
    Forced                                   : No
    
    Audio #1
    ID                                       : 2
    Format                                   : AC-3
    Format/Info                              : Audio Coding 3
    Mode extension                           : CM (complete main)
    Format settings, Endianness              : Big
    Muxing mode                              : Header stripping
    Codec ID                                 : A_AC3
    Duration                                 : 5h 12mn
    Bit rate mode                            : Constant
    Bit rate                                 : 448 Kbps
    Channel(s)                               : 2 channels
    Channel positions                        : Front: L R
    Sampling rate                            : 48.0 KHz
    Bit depth                                : 16 bits
    Compression mode                         : Lossy
    Stream size                              : 1 000 MiB (10%)
    Title                                    : 2/0
    Language                                 : English
    Default                                  : Yes
    Forced                                   : No
    
    Audio #2
    ID                                       : 3
    Format                                   : AC-3
    Format/Info                              : Audio Coding 3
    Mode extension                           : CM (complete main)
    Format settings, Endianness              : Big
    Muxing mode                              : Header stripping
    Codec ID                                 : A_AC3
    Duration                                 : 5h 12mn
    Bit rate mode                            : Constant
    Bit rate                                 : 448 Kbps
    Channel(s)                               : 6 channels
    Channel positions                        : Front: L C R, Side: L R, LFE
    Sampling rate                            : 48.0 KHz
    Bit depth                                : 16 bits
    Compression mode                         : Lossy
    Stream size                              : 1 000 MiB (10%)
    Title                                    : 3/2+1
    Language                                 : English
    Default                                  : No
    Forced                                   : No
    
    Menu
    00:00:00.000                             : en:Chapter 01
    00:00:37.971                             : en:Chapter 02
    00:06:33.226                             : en:Chapter 03
    00:09:55.661                             : en:Chapter 04
    00:15:55.921                             : en:Chapter 05
    00:23:29.708                             : en:Chapter 06
    00:30:26.758                             : en:Chapter 07
    00:34:45.283                             : en:Chapter 08
    00:45:33.363                             : en:Chapter 09
    00:55:40.303                             : en:Chapter 10
    01:00:59.589                             : en:Chapter 11
    01:05:13.843                             : en:Chapter 12
    01:10:42.638                             : en:Chapter 13
    01:27:06.955                             : en:Chapter 14
    01:34:34.402                             : en:Chapter 15
    01:42:41.788                             : en:Chapter 16
    01:47:25.984                             : en:Chapter 01
    01:50:43.548                             : en:Chapter 02
    02:16:02.932                             : en:Chapter 03
    02:20:23.092                             : en:Chapter 04
    02:25:27.096                             : en:Chapter 05
    02:28:28.844                             : en:Chapter 06
    02:34:27.869                             : en:Chapter 07
    02:39:27.569                             : en:Chapter 08
    02:41:32.660                             : en:Chapter 09
    02:48:10.291                             : en:Chapter 10
    02:53:56.136                             : en:Chapter 11
    03:27:49.601                             : en:Chapter 12
    03:30:37.202                             : en:Chapter 13
    03:34:23.228                             : en:Chapter 14
    03:37:26.811                             : en:Chapter 15
    03:42:12.512                             : en:Chapter 01
    03:44:14.333                             : en:Chapter 02
    03:48:18.844                             : en:Chapter 03
    04:05:49.394                             : en:Chapter 04
    04:14:39.089                             : en:Chapter 05
    04:20:08.051                             : en:Chapter 06
    04:22:35.933                             : en:Chapter 07
    04:35:06.349                             : en:Chapter 08
    04:41:15.951                             : en:Chapter 09
    04:47:22.050                             : en:Chapter 10
    04:53:52.641                             : en:Chapter 11
    04:57:05.467                             : en:Chapter 12
    05:03:22.443                             : en:Chapter 13
    05:08:13.167                             : en:Chapter 14






    1 link never die
    Bạn nhấn nút Thanks, sau đó nhấn F5 để lấy link nhé!







    -----------------------------------------------------------------
    ღღღ____Bán acc Fshare Vip: 599k/acc (HSD: 01/2019 = 1,5triệu VND )____ღღღ
    ღღღ___________VPS Azure Siêu rẻ: 0.5$/vps___________ღღღ

    ღღღ_________♥ Share acc Fshare Vip FREE ♥_________ღღღ


Tags for this Thread

Bookmarks

Quyền Sử Dụng Ở Diễn Ðàn

  • Bạn không được phép viết chủ đề mới
  • Bạn không được phép viết trả lời
  • Bạn không được phép gởi đính kèm
  • Bạn không được phép chỉnh sửa bài viết
  •  
$ads2ben
Lên Trên! Xuống Dưới!