[4K REMUX] Angel Has Fallen 2019 UHD BluRay 2160p TrueHD Atmos 7.1 HEVC REMUX-FraMeSToR ~

Thảo luận trong 'Bluray Remux 4K' bắt đầu bởi adm820, 15/11/19.

  1. adm820

    adm820 Moderator Thành viên BQT

    Tham gia ngày:
    1/12/10
    Bài viết:
    7,744
    Đã được cảm ơn:
    180,922
    Giới tính:
    Nam
    [​IMG]
    upload_2019-11-15_20-19-10.png


    Angel Has Fallen 2019 UHD BluRay 2160p TrueHD Atmos 7.1 HEVC REMUX-FraMeSToR
    Nhà Trắng thất thủ: Kẻ phản bội


    Tiếp nối mạch truyện của “Nhà Trắng Thất Thủ” và “Luân Đôn Thất Thủ”, nam diễn viên Gerard Butler đã quay trở lại trong “Nhà Trắng Thất Thủ: Kẻ Phản Bội”. Bộ phim xoay quanh hành trình tìm kiếm sự thật của mật vụ Mike Banning – người đang bị buộc tội ám sát Tổng thống Allan Trumbull. Anh sẽ phải chạy trốn khỏi sự truy đuổi gắt gao của FBI, đồng thời cố gắng lật tẩy những âm mưu đen tối đang bị che đậy bởi những kẻ giấu mặt.



    Mã:
    Format                      : Matroska
    Format version              : Version 4
    File size                   : 59.6 GiB
    Duration                    : 2 h 1 min
    Overall bit rate mode       : Variable
    Overall bit rate            : 70.5 Mb/s
    Movie name                  : Angel Has Fallen 4K
    Encoded date                : UTC 2019-11-15 11:11:40
    Writing application         : mkvmerge v40.0.0 ('Old Town Road + Pony') 64-bit
    
    
    Writing library             : libebml v1.3.9 + libmatroska v1.5.2
    Video
    ID                          : 1
    Format                      : HEVC
    Format/Info                 : High Efficiency Video Coding
    Format profile              : Main 10@L5.1@High
    HDR format                  : SMPTE ST 2086, HDR10 compatible
    Codec ID                    : V_MPEGH/ISO/HEVC
    Duration                    : 2 h 1 min
    Bit rate                    : 66.8 Mb/s
    Width                       : 3 840 pixels
    Height                      : 2 160 pixels
    Display aspect ratio        : 16:9
    Frame rate mode             : Constant
    Frame rate                  : 23.976 (24000/1001) FPS
    Color space                 : YUV
    Chroma subsampling          : 4:2:0 (Type 2)
    Bit depth                   : 10 bits
    Bits/(Pixel*Frame)          : 0.336
    Stream size                 : 56.5 GiB (95%)
    Default                     : Yes
    Forced                      : No
    Color range                 : Limited
    Color primaries             : BT.2020
    Transfer characteristics    : PQ
    Matrix coefficients         : BT.2020 non-constant
    Mastering display color pri : Display P3
    Mastering display luminance : min: 0.0010 cd/m2, max: 1000 cd/m2
    Maximum Content Light Level : 1000 cd/m2
    Maximum Frame-Average Light : 634 cd/m2
    Audio #1
    ID                          : 2
    Format                      : MLP FBA 16-ch
    Format/Info                 : Meridian Lossless Packing FBA with 16-channel presentation
    Commercial name             : Dolby TrueHD with Dolby Atmos
    Codec ID                    : A_TRUEHD
    Duration                    : 2 h 1 min
    Bit rate mode               : Variable
    Bit rate                    : 3 046 kb/s
    Maximum bit rate            : 5 010 kb/s
    Channel(s)                  : 8 channels
    Channel layout              : L R C LFE Ls Rs Lb Rb
    Sampling rate               : 48.0 kHz
    Frame rate                  : 1 200.000 FPS (40 SPF)
    Compression mode            : Lossless
    Stream size                 : 2.58 GiB (4%)
    Title                       : TrueHD Atmos 7.1
    Language                    : English
    Default                     : Yes
    Forced                      : No
    Number of dynamic objects   : 11
    Bed channel count           : 1 channel
    Bed channel configuration   : LFE
    Audio #2
    ID                          : 3
    Format                      : AC-3
    Format/Info                 : Audio Coding 3
    Commercial name             : Dolby Digital
    Codec ID                    : A_AC3
    Duration                    : 2 h 1 min
    Bit rate mode               : Constant
    Bit rate                    : 448 kb/s
    Channel(s)                  : 6 channels
    Channel layout              : L R C LFE Ls Rs
    Sampling rate               : 48.0 kHz
    Frame rate                  : 31.250 FPS (1536 SPF)
    Compression mode            : Lossy
    Stream size                 : 388 MiB (1%)
    Title                       : AC3 5.1-EX
    Language                    : English
    Service kind                : Complete Main
    Default                     : No
    Forced                      : No
    Text #1
    ID                          : 4
    Format                      : PGS
    Codec ID                    : S_HDMV/PGS
    Codec ID/Info               : Picture based subtitle format used on BDs/HD-DVDs
    Duration                    : 1 h 52 min
    Bit rate                    : 44.7 kb/s
    Count of elements           : 3092
    Stream size                 : 36.1 MiB (0%)
    Title                       : English (SDH)
    Language                    : English
    Default                     : No
    Forced                      : No
    Text #2
    ID                          : 5
    Format                      : PGS
    Codec ID                    : S_HDMV/PGS
    Codec ID/Info               : Picture based subtitle format used on BDs/HD-DVDs
    Duration                    : 1 h 50 min
    Bit rate                    : 47.4 kb/s
    Count of elements           : 3064
    Stream size                 : 37.7 MiB (0%)
    Title                       : French
    Language                    : French
    Default                     : No
    Forced                      : No
    Text #3
    ID                          : 6
    Format                      : PGS
    Codec ID                    : S_HDMV/PGS
    Codec ID/Info               : Picture based subtitle format used on BDs/HD-DVDs
    Duration                    : 1 h 51 min
    Bit rate                    : 34.1 kb/s
    Count of elements           : 2716
    Stream size                 : 27.2 MiB (0%)
    Title                       : Spanish (Latin American)
    Language                    : Spanish
    Default                     : No
    Forced                      : No
    


    [​IMG]
    [​IMG]
    [​IMG]
    [​IMG]
    [​IMG]
    [​IMG]



    Trailer








     
  2. traitimtraoem

    traitimtraoem Active Member

    Tham gia ngày:
    18/11/09
    Bài viết:
    560
    Đã được cảm ơn:
    126
    Giới tính:
    Nam
    Nơi ở:
    Bình Thạnh, TP.HCM
    Hàng nóng. Đợi mãi đã có hàng đẹp. Tks bác nhiều.
     
    Chỉnh sửa cuối: 15/11/19
    Hamelio Musica cảm ơn bài này.
  3. adm820

    adm820 Moderator Thành viên BQT

    Tham gia ngày:
    1/12/10
    Bài viết:
    7,744
    Đã được cảm ơn:
    180,922
    Giới tính:
    Nam
    gần 60GB đó , up hơi vất
     
    farcry85, quyetcbm and Kai LE like this.
  4. BuiAn

    BuiAn Administrator

    Tham gia ngày:
    30/10/12
    Bài viết:
    7,974
    Đã được cảm ơn:
    12,766
    ngon rồi, kéo thôi :D
     
  5. congtu_88

    congtu_88 Active Member

    Tham gia ngày:
    8/1/10
    Bài viết:
    145
    Đã được cảm ơn:
    53
    Trời đất, đeo tai nghe xem traler đã thiệt chứ :)
     
  6. adm820

    adm820 Moderator Thành viên BQT

    Tham gia ngày:
    1/12/10
    Bài viết:
    7,744
    Đã được cảm ơn:
    180,922
    Giới tính:
    Nam

    chờ sub mình mới xem , nhưng cứ upload đã
     
    hoaitrung and Kai LE like this.
  7. hoaitrung

    hoaitrung Super Moderators Thành viên BQT

    Tham gia ngày:
    13/12/09
    Bài viết:
    3,668
    Đã được cảm ơn:
    140,769
    Giới tính:
    Nam
    Nghề nghiệp:
    HD Documentaries
    Nơi ở:
    Việt Nam
  8. BuiAn

    BuiAn Administrator

    Tham gia ngày:
    30/10/12
    Bài viết:
    7,974
    Đã được cảm ơn:
    12,766
  9. hoaitrung

    hoaitrung Super Moderators Thành viên BQT

    Tham gia ngày:
    13/12/09
    Bài viết:
    3,668
    Đã được cảm ơn:
    140,769
    Giới tính:
    Nam
    Nghề nghiệp:
    HD Documentaries
    Nơi ở:
    Việt Nam
    Sorry nha, bị nhầm:D
     
  10. adm820

    adm820 Moderator Thành viên BQT

    Tham gia ngày:
    1/12/10
    Bài viết:
    7,744
    Đã được cảm ơn:
    180,922
    Giới tính:
    Nam

Chia sẻ trang này