[4K REMUX] Charlie's Angels 2019 UHD BluRay 2160p DTS:X 7.1 HEVC REMUX-FraMeSToR ~ Những Thiên Thần

Thảo luận trong 'Bluray Remux 4K' bắt đầu bởi adm820, 28/2/20.

  1. adm820

    adm820 Moderator Thành viên BQT

    Tham gia ngày:
    1/12/10
    Bài viết:
    7,761
    Đã được cảm ơn:
    181,499
    Giới tính:
    Nam
    [​IMG]

    upload_2020-2-28_13-44-35.png



    Những thiên thần của Charlie (tiếng Anh: Charlie's Angels) là một bộ phim hài hành động Mỹ sắp ra mắt của đạo diễn Elizabeth Banks, người đã viết nên kịch bản từ một câu chuyện của Evan Spiliotopoulos và David Auburn. Đây là phần thứ ba trong loạt phim Thiên thần của Charlie, dựa trên loạt phim truyền hình cùng tên do Ivan Goff và Ben Roberts làm nên, đồng thời cũng là phần tiếp theo độc lập so với cả loạt phim gốc và phim trước đó.

    Phim có sự tham gia của Kristen Stewart, Naomi Scott, Ella Balinska, Banks, Sam Claflin, Noah Centineo, Jonathan Tucker, Djimon Hounsou và Patrick Stewart. Nó dự kiến sẽ được phát hành vào ngày 15 tháng 11 năm 2019, bởi Sony Pictures Rel Release.




    Mã:
    General
    Unique ID                   : 199763530053310689454084631493189799213 (0x96490E725E34B0748A3B9F9F8E5B8D2D)
    Complete name               : C:\Users\Administrator\Downloads\Charlies.Angels.2019.UHD.BluRay.2160p.DTS-X.7.1.HEVC.REMUX-FraMeSToR\Charlies.Angels.2019.UHD.BluRay.2160p.DTS-X.7.1.HEVC.REMUX-FraMeSToR.mkv
    Format                      : Matroska
    Format version              : Version 4
    File size                   : 44.8 GiB
    Duration                    : 1 h 58 min
    Overall bit rate mode       : Variable
    Overall bit rate            : 54.2 Mb/s
    
    
    Movie name                  : Charlie's Angels 4K
    Encoded date                : UTC 2020-02-28 04:22:19
    Writing application         : mkvmerge v43.0.0 ('The Quartermaster') 64-bit
    Writing library             : libebml v1.3.10 + libmatroska v1.5.2
    IMDB                        : tt5033998
    TMDB                        : movie/458897
    Video
    ID                          : 1
    Format                      : HEVC
    Format/Info                 : High Efficiency Video Coding
    Format profile              : Main 10@L5.1@High
    HDR format                  : SMPTE ST 2086, HDR10 compatible
    Codec ID                    : V_MPEGH/ISO/HEVC
    Duration                    : 1 h 58 min
    Bit rate                    : 47.3 Mb/s
    Width                       : 3 840 pixels
    Height                      : 2 160 pixels
    Display aspect ratio        : 16:9
    Frame rate mode             : Constant
    Frame rate                  : 23.976 (24000/1001) FPS
    Color space                 : YUV
    Chroma subsampling          : 4:2:0 (Type 2)
    Bit depth                   : 10 bits
    Bits/(Pixel*Frame)          : 0.238
    Stream size                 : 39.1 GiB (87%)
    Default                     : Yes
    Forced                      : No
    Color range                 : Limited
    Color primaries             : BT.2020
    Transfer characteristics    : PQ
    Matrix coefficients         : BT.2020 non-constant
    Mastering display color pri : Display P3
    Mastering display luminance : min: 0.0050 cd/m2, max: 4000 cd/m2
    Maximum Content Light Level : 9949 cd/m2
    Maximum Frame-Average Light : 904 cd/m2
    Audio
    ID                          : 2
    Format                      : DTS XLL
    Format/Info                 : Digital Theater Systems
    Commercial name             : DTS-HD Master Audio
    Codec ID                    : A_DTS
    Duration                    : 1 h 58 min
    Bit rate mode               : Variable
    Bit rate                    : 6 242 kb/s
    Channel(s)                  : 8 channels
    Channel layout              : C L R LFE Lb Rb Lss Rss
    Sampling rate               : 48.0 kHz
    Frame rate                  : 93.750 FPS (512 SPF)
    Bit depth                   : 24 bits
    Compression mode            : Lossless
    Stream size                 : 5.17 GiB (12%)
    Title                       : DTS:X 7.1
    Language                    : English
    Default                     : Yes
    Forced                      : No
    Text #1
    ID                          : 3
    Format                      : PGS
    Codec ID                    : S_HDMV/PGS
    Codec ID/Info               : Picture based subtitle format used on BDs/HD-DVDs
    Duration                    : 19 min 32 s
    Bit rate                    : 1 045 b/s
    Count of elements           : 18
    Stream size                 : 150 KiB (0%)
    Title                       : English (Forced only)
    Language                    : English
    Default                     : Yes
    Forced                      : Yes
    Text #2
    ID                          : 4
    Format                      : PGS
    Codec ID                    : S_HDMV/PGS
    Codec ID/Info               : Picture based subtitle format used on BDs/HD-DVDs
    Duration                    : 1 h 52 min
    Bit rate                    : 36.6 kb/s
    Count of elements           : 3206
    Stream size                 : 29.5 MiB (0%)
    Title                       : English
    Language                    : English
    Default                     : No
    Forced                      : No
    Text #3
    ID                          : 5
    Format                      : PGS
    Codec ID                    : S_HDMV/PGS
    Codec ID/Info               : Picture based subtitle format used on BDs/HD-DVDs
    Duration                    : 1 h 55 min
    Bit rate                    : 44.2 kb/s
    Count of elements           : 3820
    Stream size                 : 36.5 MiB (0%)
    Title                       : English (SDH)
    Language                    : English
    Default                     : No
    Forced                      : No
    Text #4
    ID                          : 6
    Format                      : PGS
    Codec ID                    : S_HDMV/PGS
    Codec ID/Info               : Picture based subtitle format used on BDs/HD-DVDs
    Duration                    : 1 h 57 min
    Bit rate                    : 20.9 kb/s
    Count of elements           : 3305
    Stream size                 : 17.6 MiB (0%)
    Title                       : Arabic
    Language                    : Arabic
    Default                     : No
    Forced                      : No
    Text #5
    ID                          : 7
    Format                      : PGS
    Codec ID                    : S_HDMV/PGS
    Codec ID/Info               : Picture based subtitle format used on BDs/HD-DVDs
    Duration                    : 1 h 57 min
    Bit rate                    : 31.4 kb/s
    Count of elements           : 3223
    Stream size                 : 26.4 MiB (0%)
    Title                       : Bulgarian
    Language                    : Bulgarian
    Default                     : No
    Forced                      : No
    Text #6
    ID                          : 8
    Format                      : PGS
    Codec ID                    : S_HDMV/PGS
    Codec ID/Info               : Picture based subtitle format used on BDs/HD-DVDs
    Duration                    : 1 h 57 min
    Bit rate                    : 29.8 kb/s
    Count of elements           : 3204
    Stream size                 : 25.0 MiB (0%)
    Title                       : Croatian
    Language                    : Croatian
    Default                     : No
    Forced                      : No
    Text #7
    ID                          : 9
    Format                      : PGS
    Codec ID                    : S_HDMV/PGS
    Codec ID/Info               : Picture based subtitle format used on BDs/HD-DVDs
    Duration                    : 1 h 57 min
    Bit rate                    : 31.4 kb/s
    Count of elements           : 3275
    Stream size                 : 26.4 MiB (0%)
    Title                       : Czech
    Language                    : Czech
    Default                     : No
    Forced                      : No
    Text #8
    ID                          : 10
    Format                      : PGS
    Codec ID                    : S_HDMV/PGS
    Codec ID/Info               : Picture based subtitle format used on BDs/HD-DVDs
    Duration                    : 1 h 57 min
    Bit rate                    : 27.7 kb/s
    Count of elements           : 3155
    Stream size                 : 23.3 MiB (0%)
    Title                       : French
    Language                    : French
    Default                     : No
    Forced                      : No
    Text #9
    ID                          : 11
    Format                      : PGS
    Codec ID                    : S_HDMV/PGS
    Codec ID/Info               : Picture based subtitle format used on BDs/HD-DVDs
    Duration                    : 1 h 52 min
    Bit rate                    : 36.6 kb/s
    Count of elements           : 3247
    Stream size                 : 29.5 MiB (0%)
    Title                       : Greek
    Language                    : Greek
    Default                     : No
    Forced                      : No
    Text #10
    ID                          : 12
    Format                      : PGS
    Codec ID                    : S_HDMV/PGS
    Codec ID/Info               : Picture based subtitle format used on BDs/HD-DVDs
    Duration                    : 1 h 57 min
    Bit rate                    : 26.0 kb/s
    Count of elements           : 3315
    Stream size                 : 21.9 MiB (0%)
    Title                       : Hebrew
    Language                    : Hebrew
    Default                     : No
    Forced                      : No
    Text #11
    ID                          : 13
    Format                      : PGS
    Codec ID                    : S_HDMV/PGS
    Codec ID/Info               : Picture based subtitle format used on BDs/HD-DVDs
    Duration                    : 1 h 57 min
    Bit rate                    : 34.0 kb/s
    Count of elements           : 3204
    Stream size                 : 28.6 MiB (0%)
    Title                       : Hungarian
    Language                    : Hungarian
    Default                     : No
    Forced                      : No
    Text #12
    ID                          : 14
    Format                      : PGS
    Codec ID                    : S_HDMV/PGS
    Codec ID/Info               : Picture based subtitle format used on BDs/HD-DVDs
    Duration                    : 1 h 57 min
    Bit rate                    : 32.8 kb/s
    Count of elements           : 3134
    Stream size                 : 27.6 MiB (0%)
    Title                       : Icelandic
    Language                    : Icelandic
    Default                     : No
    Forced                      : No
    Text #13
    ID                          : 15
    Format                      : PGS
    Codec ID                    : S_HDMV/PGS
    Codec ID/Info               : Picture based subtitle format used on BDs/HD-DVDs
    Duration                    : 1 h 57 min
    Bit rate                    : 30.1 kb/s
    Count of elements           : 3774
    Stream size                 : 25.3 MiB (0%)
    Title                       : Korean
    Language                    : Korean
    Default                     : No
    Forced                      : No
    Text #14
    ID                          : 16
    Format                      : PGS
    Codec ID                    : S_HDMV/PGS
    Codec ID/Info               : Picture based subtitle format used on BDs/HD-DVDs
    Duration                    : 1 h 57 min
    Bit rate                    : 34.4 kb/s
    Count of elements           : 3211
    Stream size                 : 28.9 MiB (0%)
    Title                       : Polish
    Language                    : Polish
    Default                     : No
    Forced                      : No
    Text #15
    ID                          : 17
    Format                      : PGS
    Codec ID                    : S_HDMV/PGS
    Codec ID/Info               : Picture based subtitle format used on BDs/HD-DVDs
    Duration                    : 1 h 57 min
    Bit rate                    : 37.3 kb/s
    Count of elements           : 3259
    Stream size                 : 31.3 MiB (0%)
    Title                       : Portuguese (Iberian)
    Language                    : Portuguese
    Default                     : No
    Forced                      : No
    Text #16
    ID                          : 18
    Format                      : PGS
    Codec ID                    : S_HDMV/PGS
    Codec ID/Info               : Picture based subtitle format used on BDs/HD-DVDs
    Duration                    : 1 h 57 min
    Bit rate                    : 33.5 kb/s
    Count of elements           : 3071
    Stream size                 : 28.2 MiB (0%)
    Title                       : Romanian
    Language                    : Romanian
    Default                     : No
    Forced                      : No
    Text #17
    ID                          : 19
    Format                      : PGS
    Codec ID                    : S_HDMV/PGS
    Codec ID/Info               : Picture based subtitle format used on BDs/HD-DVDs
    Duration                    : 1 h 57 min
    Bit rate                    : 30.6 kb/s
    Count of elements           : 3218
    Stream size                 : 25.7 MiB (0%)
    Title                       : Serbian
    Language                    : Serbian
    Default                     : No
    Forced                      : No
    Text #18
    ID                          : 20
    Format                      : PGS
    Codec ID                    : S_HDMV/PGS
    Codec ID/Info               : Picture based subtitle format used on BDs/HD-DVDs
    Duration                    : 1 h 57 min
    Bit rate                    : 29.0 kb/s
    Count of elements           : 3289
    Stream size                 : 24.4 MiB (0%)
    Title                       : Slovak
    Language                    : Slovak
    Default                     : No
    Forced                      : No
    Text #19
    ID                          : 21
    Format                      : PGS
    Codec ID                    : S_HDMV/PGS
    Codec ID/Info               : Picture based subtitle format used on BDs/HD-DVDs
    Duration                    : 1 h 57 min
    Bit rate                    : 28.7 kb/s
    Count of elements           : 2652
    Stream size                 : 24.1 MiB (0%)
    Title                       : Slovenian
    Language                    : Slovenian
    Default                     : No
    Forced                      : No
    Text #20
    ID                          : 22
    Format                      : PGS
    Codec ID                    : S_HDMV/PGS
    Codec ID/Info               : Picture based subtitle format used on BDs/HD-DVDs
    Duration                    : 1 h 57 min
    Bit rate                    : 33.8 kb/s
    Count of elements           : 3239
    Stream size                 : 28.5 MiB (0%)
    Title                       : Spanish (Latin American)
    Language                    : Spanish
    Default                     : No
    Forced                      : No
    Text #21
    ID                          : 23
    Format                      : PGS
    Codec ID                    : S_HDMV/PGS
    Codec ID/Info               : Picture based subtitle format used on BDs/HD-DVDs
    Duration                    : 1 h 57 min
    Bit rate                    : 36.3 kb/s
    Count of elements           : 3301
    Stream size                 : 30.5 MiB (0%)
    Title                       : Turkish
    Language                    : Turkish
    Default                     : No
    Forced                      : No
    Menu
    00:00:00.000                : en:Chapter 01
    00:10:26.626                : en:Chapter 02
    00:16:50.551                : en:Chapter 03
    00:26:28.754                : en:Chapter 04
    00:31:52.786                : en:Chapter 05
    00:37:36.087                : en:Chapter 06
    00:43:55.883                : en:Chapter 07
    00:46:39.255                : en:Chapter 08
    00:51:26.542                : en:Chapter 09
    00:55:10.265                : en:Chapter 10
    01:03:48.700                : en:Chapter 11
    01:11:24.197                : en:Chapter 12
    01:20:14.852                : en:Chapter 13
    01:30:47.567                : en:Chapter 14
    01:40:31.651                : en:Chapter 15
    01:45:24.109                : en:Chapter 16
    
    [​IMG] [​IMG] [​IMG] [​IMG]








    Link tải

    Nhấn nút Cảm ơn (dưới chân bài) để thấy link!




     
  2. singlitevn

    singlitevn New Member

    Tham gia ngày:
    29/2/20
    Bài viết:
    20
    Đã được cảm ơn:
    6
    Giới tính:
    Nam
    thanks bác
     
  3. quangbac19

    quangbac19 New Member

    Tham gia ngày:
    5/2/18
    Bài viết:
    2
    Đã được cảm ơn:
    0
    Giới tính:
    Nam
     
  4. quangbac19

    quangbac19 New Member

    Tham gia ngày:
    5/2/18
    Bài viết:
    2
    Đã được cảm ơn:
    0
    Giới tính:
    Nam
    link dau ban
     
  5. adm820

    adm820 Moderator Thành viên BQT

    Tham gia ngày:
    1/12/10
    Bài viết:
    7,761
    Đã được cảm ơn:
    181,499
    Giới tính:
    Nam
    xem lại xem
     
    Super Man and MMT like this.

Chia sẻ trang này