[4SHARE.VN] Hài Xuân Hinh Hè 2010 - Người ngựa, ngựa người 2 & Xuân Hinh thua World Cup

Thảo luận trong 'mHD, SD' bắt đầu bởi nguyentientho94, 30/5/10.

  1. nguyentientho94

    nguyentientho94 Member

    Tham gia ngày:
    24/1/10
    Bài viết:
    572
    Đã được thích:
    1
    Điểm thành tích:
    18
    Tiền:
    903 CR
    HÀI XUÂN HINH HÈ 2010 - Người ngựa, ngựa người 2 & Xuân Hinh thua World Cup


    [​IMG]

    Mã:
    General
    Complete name                    : D:\HAIXUANHINH_HE2010.DAT
    Format                           : CDXA/MPEG-PS
    File size                        : 718 MiB
    Duration                         : 1h 11mn
    Overall bit rate                 : 1 412 Kbps
    Writing library                  : encoded by TMPGEnc 4.0 XPress Version. 4.7.4.299
    
    Video
    ID                               : 224 (0xE0)
    Format                           : MPEG Video
    Format version                   : Version 1
    Format settings, BVOP            : Yes
    Format settings, Matrix          : Default
    Duration                         : 1h 11mn
    Bit rate mode                    : Constant
    Bit rate                         : 1 150 Kbps
    Width                            : 352 pixels
    Height                           : 288 pixels
    Display aspect ratio             : 4:3
    Frame rate                       : 25.000 fps
    Standard                         : PAL
    Color space                      : YUV
    Bit depth                        : 8 bits
    Scan type                        : Progressive
    Bits/(Pixel*Frame)               : 0.454
    Stream size                      : 590 MiB (82%)
    Writing library                  : TMPGEnc XPress 4.7.4.299
    
    Audio
    ID                               : 192 (0xC0)
    Format                           : MPEG Audio
    Format version                   : Version 1
    Format profile                   : Layer 2
    Duration                         : 1h 11mn
    Bit rate mode                    : Constant
    Bit rate                         : 224 Kbps
    Channel(s)                       : 2 channels
    Sampling rate                    : 44.1 KHz
    Stream size                      : 114 MiB (16%)
    

    DOWNLOAD (1 file x 717 MB)

    [DOWNLOAD]http://forum.f5refresh.net/showthread.php?t=305[/DOWNLOAD]

    Uploaded by F5 REFRESH TEAM

    Xin hãy ghi rõ nguồn của bài viết (http://f5refresh.net) nếu chia sẻ sang các diễn đàn khác ! Xin cảm ơn.
     
    Chỉnh sửa cuối: 30/5/10
  2. datspk

    datspk New Member

    Tham gia ngày:
    28/2/10
    Bài viết:
    1
    Đã được thích:
    0
    Điểm thành tích:
    0
    Tiền:
    1 CR
    Ðề: [4SHARE.VN] Hài Xuân Hinh Hè 2010 - Người ngựa, ngựa người 2 & Xuân Hinh thua World Cup

    Hehe bóc tem bóc tem, Thanks bạn phát!
     
  3. thunet123

    thunet123 Member

    Tham gia ngày:
    9/1/10
    Bài viết:
    48
    Đã được thích:
    0
    Điểm thành tích:
    6
    Tiền:
    34 CR
  4. locvietvm

    locvietvm New Member

    Tham gia ngày:
    14/12/09
    Bài viết:
    148
    Đã được thích:
    1
    Điểm thành tích:
    0
    Nghề nghiệp:
    sinh viên
    Nơi ở:
    Việt Nam
    Tiền:
    89 CR
    Ðề: [4SHARE.VN] Hài Xuân Hinh Hè 2010 - Người ngựa, ngựa người 2 & Xuân Hinh thua World Cup

    xem xuân hinh ngày càng chán. mất hết cả hứng :(
     
  5. hoangtubongma

    hoangtubongma Member

    Tham gia ngày:
    8/8/09
    Bài viết:
    914
    Đã được thích:
    2
    Điểm thành tích:
    18
    Nơi ở:
    Cầu Giấy, Hà Nội
    Tiền:
    1,244 CR
    Ðề: [4SHARE.VN] Hài Xuân Hinh Hè 2010 - Người ngựa, ngựa người 2 & Xuân Hinh thua World Cup

    Được thời ngày xưa, xem Xuân Hinh ko bao giờ chán. Bây h, nhìn mặt thấy ghét. Cũng giống như Ưng Hoàng Phúc vậy
     
  6. laanhdo

    laanhdo New Member

    Tham gia ngày:
    22/3/10
    Bài viết:
    40
    Đã được thích:
    0
    Điểm thành tích:
    0
    Tiền:
    0 CR
    Ðề: [4SHARE.VN] Hài Xuân Hinh Hè 2010 - Người ngựa, ngựa người 2 & Xuân Hinh thua World Cup

    Đề nghị chủ thớt lần sau không đưa link ra lừa đảo anh em.
     

Chia sẻ trang này