[Action | Crime | Drama -1Link] The Fast And The Furious 1, 2, 3, 4 BluRay 1080p DTS.MA x264 DXVA -

Thảo luận trong 'Fshare.vn' bắt đầu bởi anbinhdo, 30/3/13.

  1. anbinhdo

    anbinhdo Well-Known Member

    Tham gia ngày:
    3/3/10
    Bài viết:
    12,391
    Đã được cảm ơn:
    348
    Nghề nghiệp:
    Điện Tử Viễn Thông
    Nơi ở:
    TP Đà Nẵng - Việt Nam
    The Fast And The Furious 1, 2, 3, 4 BluRay 1080p DTS.MA x264 DXVA - FraMeSToR


    [​IMG]



    Link dow các phần:
    Phần 1 :
    Phần 2 :
    Phần 3:
    Phần 4:


    ---------- Post added 30-03-2013 at 09:59:45 AM ----------

    The Fast and the Furious 2001 Bluray 1080p DTSMA x264 dxva-FraMeSToR


    [​IMG]


    Mã:
    [COLOR="#0000FF"]Giới thiệu: Bộ phim mở màn với cảnh cướp xe tải khá ngoạn mục và hoàn toàn mang tính “bất khả thi” ở ngoài đời. Sau hàng loạt những vụ cướp như thế, cánh xe tải bắt đầu gây áp lực mạnh với FBI. Bằng mọi giá, cơ quan điều tra phải ra tay ngăn chặn băng cướp nguy hiểm và táo tợn này…....
    [/COLOR]
    Mã:
    
    [COLOR="#0000FF"]
    General
    Complete name                    : F:\HD - 1080p\The Fast And The Furious 1, 2, 3, 4 BluRay 1080p DTS.MA x264 DXVA - FraMeSToR\The Fast and the Furious 2001 Bluray 1080p DTSMA x264 dxva-FraMeSToR\The Fast and the Furious 2001 Bluray 1080p DTSMA x264 dxva-FraMeSToR.mkv
    Format                           : Matroska
    File size                        : 12.6 GiB
    Duration                         : 1h 46mn
    Overall bit rate                 : 16.9 Mbps
    Encoded date                     : UTC 2010-06-26 08:45:43
    Writing application              : mkvmerge v3.3.0 ('Language') built on Mar 24 2010 14:59:24
    Writing library                  : libebml v0.8.0 + libmatroska v0.9.0
    
    Video
    ID                               : 1
    Format                           : AVC
    Format/Info                      : Advanced Video Codec
    Format profile                   : High@L4.1
    Format settings, CABAC           : Yes
    Format settings, ReFrames        : 4 frames
    Muxing mode                      : Container profile=Unknown@4.1
    Codec ID                         : V_MPEG4/ISO/AVC
    Duration                         : 1h 46mn
    Nominal bit rate                 : 12.6 Mbps
    Width                            : 1 920 pixels
    Height                           : 816 pixels
    Display aspect ratio             : 2.35:1
    Frame rate                       : 23.976 fps
    Color space                      : YUV
    Chroma subsampling               : 4:2:0
    Bit depth                        : 8 bits
    Scan type                        : Progressive
    Bits/(Pixel*Frame)               : 0.336
    Writing library                  : x264 core 93 r1538 bd72d46
    Encoding settings                : cabac=1 / ref=5 / deblock=1:-2:-2 / analyse=0x3:0x113 / me=umh / subme=9 / psy=1 / psy_rd=1.00:0.00 / mixed_ref=1 / me_range=32 / chroma_me=1 / trellis=2 / 8x8dct=1 / cqm=0 / deadzone=21,11 / fast_pskip=1 / chroma_qp_offset=-2 / threads=12 / sliced_threads=0 / nr=0 / decimate=1 / interlaced=0 / constrained_intra=0 / bframes=8 / b_pyramid=1 / b_adapt=2 / b_bias=0 / direct=2 / wpredb=1 / wpredp=2 / keyint=250 / keyint_min=25 / scenecut=40 / intra_refresh=0 / rc_lookahead=40 / rc=2pass / mbtree=1 / bitrate=12632 / ratetol=2.0 / qcomp=0.70 / qpmin=10 / qpmax=51 / qpstep=4 / cplxblur=20.0 / qblur=0.5 / vbv_maxrate=50000 / vbv_bufsize=50000 / ip_ratio=1.40 / aq=1:0.80 / nal_hrd=none
    Language                         : English
    
    Audio #1
    ID                               : 2
    Format                           : DTS
    Format/Info                      : Digital Theater Systems
    Format profile                   : MA
    Codec ID                         : A_DTS
    Duration                         : 1h 46mn
    Bit rate mode                    : Variable
    Channel(s)                       : 6 channels
    Channel positions                : Front: L C R, Side: L R, LFE
    Sampling rate                    : 48.0 KHz
    Bit depth                        : 24 bits
    Language                         : English
    
    Audio #2
    ID                               : 3
    Format                           : AC-3
    Format/Info                      : Audio Coding 3
    Format profile                   : Dolby Digital
    Mode extension                   : CM (complete main)
    Codec ID                         : A_AC3
    Duration                         : 1h 46mn
    Bit rate mode                    : Constant
    Bit rate                         : 192 Kbps
    Channel(s)                       : 2 channels
    Channel positions                : Front: L R
    Sampling rate                    : 48.0 KHz
    Stream size                      : 147 MiB (1%)
    Language                         : English
    
    Text #1
    ID                               : 4
    Format                           : UTF-8
    Codec ID                         : S_TEXT/UTF8
    Codec ID/Info                    : UTF-8 Plain Text
    Language                         : English
    
    Text #2
    ID                               : 5
    Format                           : UTF-8
    Codec ID                         : S_TEXT/UTF8
    Codec ID/Info                    : UTF-8 Plain Text
    Language                         : Dutch
    
    Menu
    00:00:00.000                     : en:00:00:00.000
    00:02:56.885                     : en:00:02:56.885
    00:10:20.245                     : en:00:10:20.245
    00:15:07.532                     : en:00:15:07.532
    00:26:40.474                     : en:00:26:40.474
    00:29:59.214                     : en:00:29:59.214
    00:34:42.872                     : en:00:34:42.872
    00:38:08.495                     : en:00:38:08.495
    00:44:56.402                     : en:00:44:56.402
    00:55:26.490                     : en:00:55:26.490
    00:58:40.434                     : en:00:58:40.434
    01:01:45.744                     : en:01:01:45.744
    01:09:25.119                     : en:01:09:25.119
    01:12:02.026                     : en:01:12:02.026
    01:15:23.686                     : en:01:15:23.686
    01:20:44.173                     : en:01:20:44.173
    01:29:59.811                     : en:01:29:59.811
    01:34:58.318                     : en:01:34:58.318
    01:38:05.463                     : en:01:38:05.463
    01:39:57.992                     : en:01:39:57.992
    
    [/COLOR]
    
    Mã:
    [COLOR="#0000FF"]Ratings: [COLOR="#FF0000"][B] 6,4/10[/B][/COLOR] from[URL="http://www.imdb.com/title/tt0232500/ratings?ref_=tt_ov_rt"] [U][COLOR="#FF0000"] 146.590 users[/COLOR][/U] [/URL]   
    Director:
    Rob Cohen
    Writers:
    Ken Li (magazine article "Racer X"), Gary Scott Thompson (screen story).
    Stars:
    Vin Diesel, Paul Walker, Michelle Rodriguez
    
    [COLOR="#FF0000"][B]Lưu ý:[/B][/COLOR] Thông tin được cập nhật vào lúc 2013-03-30 nên có thể đã cũ, vui lòng nhấp vào [URL="http://www.imdb.com/title/tt0232500/?ref_=fn_al_tt_1"][COLOR="#FF0000"][B]đây [/B][/COLOR][/URL] để cập nhật thông tin mới[/COLOR]
    
    View attachment 100683

    1 Link : 12.61G

    Nhấn nút Cảm ơn (dưới chân bài) để thấy link!




    Sub Việt .





    [video=youtube;63tg_R4qi2k]http://www.youtube.com/watch?v=63tg_R4qi2k[/video]​

    p/s:
    Share cho anh em đang cần.
    Lâu quá ko Up lại nên các Mod có gì chỉnh sửa giùm em tý nhé. Xin cảm ơn !
     
    thanhtung90, fsvnhd and to_pit like this.
  2. anbinhdo

    anbinhdo Well-Known Member

    Tham gia ngày:
    3/3/10
    Bài viết:
    12,391
    Đã được cảm ơn:
    348
    Nghề nghiệp:
    Điện Tử Viễn Thông
    Nơi ở:
    TP Đà Nẵng - Việt Nam
    Ðề: [Action | Crime | Drama -1Link] The Fast And The Furious 1, 2, 3, 4 BluRay 1080p DTS.MA x264 DXVA - FraMeSToR

    2 Fast 2 Furious 2003 Bluray 1080p DTSMA x264 dxva-FraMeSToR


    [​IMG]


    Mã:
    
    [COLOR="#0000FF"]
    General
    Complete name                    : F:\HD - 1080p\The Fast And The Furious 1, 2, 3, 4 BluRay 1080p DTS.MA x264 DXVA - FraMeSToR\2 Fast 2 Furious 2003 Bluray 1080p DTSMA x264 dxva-FraMeSToR\2 Fast 2 Furious 2003 Bluray 1080p DTSMA x264 dxva-FraMeSToR.mkv
    Format                           : Matroska
    File size                        : 14.3 GiB
    Duration                         : 1h 47mn
    Overall bit rate                 : 19.1 Mbps
    Encoded date                     : UTC 2010-06-25 12:22:23
    Writing application              : mkvmerge v3.3.0 ('Language') built on Mar 24 2010 14:59:24
    Writing library                  : libebml v0.8.0 + libmatroska v0.9.0
    
    Video
    ID                               : 1
    Format                           : AVC
    Format/Info                      : Advanced Video Codec
    Format profile                   : High@L4.1
    Format settings, CABAC           : Yes
    Format settings, ReFrames        : 4 frames
    Muxing mode                      : Container profile=Unknown@4.1
    Codec ID                         : V_MPEG4/ISO/AVC
    Duration                         : 1h 47mn
    Nominal bit rate                 : 14.9 Mbps
    Width                            : 1 920 pixels
    Height                           : 816 pixels
    Display aspect ratio             : 2.35:1
    Frame rate                       : 23.976 fps
    Color space                      : YUV
    Chroma subsampling               : 4:2:0
    Bit depth                        : 8 bits
    Scan type                        : Progressive
    Bits/(Pixel*Frame)               : 0.396
    Writing library                  : x264 core 93 r1538 bd72d46
    Encoding settings                : cabac=1 / ref=5 / deblock=1:-4:-4 / analyse=0x3:0x113 / me=umh / subme=9 / psy=1 / psy_rd=1.00:0.00 / mixed_ref=1 / me_range=32 / chroma_me=1 / trellis=2 / 8x8dct=1 / cqm=0 / deadzone=21,11 / fast_pskip=1 / chroma_qp_offset=-2 / threads=12 / sliced_threads=0 / nr=0 / decimate=1 / interlaced=0 / constrained_intra=0 / bframes=8 / b_pyramid=1 / b_adapt=2 / b_bias=0 / direct=2 / wpredb=1 / wpredp=2 / keyint=250 / keyint_min=25 / scenecut=40 / intra_refresh=0 / rc_lookahead=40 / rc=2pass / mbtree=1 / bitrate=14862 / ratetol=2.0 / qcomp=0.70 / qpmin=10 / qpmax=51 / qpstep=4 / cplxblur=20.0 / qblur=0.5 / vbv_maxrate=50000 / vbv_bufsize=50000 / ip_ratio=1.40 / aq=1:0.80 / nal_hrd=none
    Language                         : English
    
    Audio #1
    ID                               : 2
    Format                           : DTS
    Format/Info                      : Digital Theater Systems
    Format profile                   : MA
    Codec ID                         : A_DTS
    Duration                         : 1h 47mn
    Bit rate mode                    : Variable
    Channel(s)                       : 6 channels
    Channel positions                : Front: L C R, Side: L R, LFE
    Sampling rate                    : 48.0 KHz
    Bit depth                        : 24 bits
    Language                         : Dutch
    
    Audio #2
    ID                               : 3
    Format                           : AC-3
    Format/Info                      : Audio Coding 3
    Format profile                   : Dolby Digital
    Mode extension                   : CM (complete main)
    Codec ID                         : A_AC3
    Duration                         : 1h 47mn
    Bit rate mode                    : Constant
    Bit rate                         : 192 Kbps
    Channel(s)                       : 2 channels
    Channel positions                : Front: L R
    Sampling rate                    : 48.0 KHz
    Stream size                      : 148 MiB (1%)
    Language                         : English
    
    Text #1
    ID                               : 4
    Format                           : UTF-8
    Codec ID                         : S_TEXT/UTF8
    Codec ID/Info                    : UTF-8 Plain Text
    Language                         : English
    
    Text #2
    ID                               : 5
    Format                           : UTF-8
    Codec ID                         : S_TEXT/UTF8
    Codec ID/Info                    : UTF-8 Plain Text
    Language                         : Dutch
    
    Menu
    00:00:00.000                     : en:00:00:00.000
    00:11:29.689                     : en:00:11:29.689
    00:14:20.818                     : en:00:14:20.818
    00:16:02.628                     : en:00:16:02.628
    00:18:57.345                     : en:00:18:57.345
    00:24:23.545                     : en:00:24:23.545
    00:28:16.820                     : en:00:28:16.820
    00:35:14.154                     : en:00:35:14.154
    00:40:08.323                     : en:00:40:08.323
    00:46:44.385                     : en:00:46:44.385
    00:58:55.115                     : en:00:58:55.115
    01:05:03.191                     : en:01:05:03.191
    01:10:25.304                     : en:01:10:25.304
    01:13:38.039                     : en:01:13:38.039
    01:22:15.639                     : en:01:22:15.639
    01:29:54.139                     : en:01:29:54.139
    01:35:17.629                     : en:01:35:17.629
    01:37:32.972                     : en:01:37:32.972
    01:40:33.027                     : en:01:40:33.027
    
    
    [/COLOR]
    
    Mã:
    [COLOR="#0000FF"]Ratings: [COLOR="#FF0000"][B]  5,4/10  [/B][/COLOR] from[URL="http://www.imdb.com/title/tt0322259/ratings?ref_=tt_ov_rt"] [U][COLOR="#FF0000"]  95.391 users    [/COLOR][/U] [/URL]   
    
    Director:
    John Singleton
    Writers:
    Gary Scott Thompson (characters), Michael Brandt (story)....
    Stars:
    Paul Walker, Tyrese Gibson, Cole Hauser 
    
    [COLOR="#FF0000"][B]Lưu ý:[/B][/COLOR] Thông tin được cập nhật vào lúc 2013-03-30 nên có thể đã cũ, vui lòng nhấp vào [URL="http://www.imdb.com/title/tt0322259/?ref_=fn_al_tt_1"][COLOR="#FF0000"][B]đây [/B][/COLOR][/URL] để cập nhật thông tin mới[/COLOR]
    
    thumbs20130330101731.jpg

    1 Link : 14.34G

    Nhấn nút Cảm ơn (dưới chân bài) để thấy link!




    Sub Việt .

    Link tải phim
    [Fshare - Dich vu chia se, luu tru du lieu mien phi tot nhat

    ]Fshare - Dich vu chia se, luu tru du lieu mien phi tot nhat[/url]




    [video=youtube;Z5CWrweLxUY]http://www.youtube.com/watch?v=Z5CWrweLxUY[/video]​

    p/s:
    Share cho anh em đang cần.
    Lâu quá ko Up lại nên các Mod có gì chỉnh sửa giùm em tý nhé. Xin cảm ơn !
     
    Chỉnh sửa cuối: 30/3/13
    fsvnhd and to_pit like this.
  3. aomonghet

    aomonghet Member

    Tham gia ngày:
    3/11/12
    Bài viết:
    82
    Đã được cảm ơn:
    5
    Giới tính:
    Nam
    Nghề nghiệp:
    Lập Trình Viên
    Nơi ở:
    Hà Nội
    thanks! e xem het r! hihi
     
  4. anbinhdo

    anbinhdo Well-Known Member

    Tham gia ngày:
    3/3/10
    Bài viết:
    12,391
    Đã được cảm ơn:
    348
    Nghề nghiệp:
    Điện Tử Viễn Thông
    Nơi ở:
    TP Đà Nẵng - Việt Nam
    Ðề: Re: [Action | Crime | Drama -1Link] The Fast And The Furious 1, 2, 3, 4 BluRay 1080p DTS.MA x264 DXVA - FraMeSToR

    Vâng chúng ta xem rồi thì hãy giới thiệu mọi người chưa xem cùng xem !Và cất để cho cháu chắt sau này xem làm tay đua :D
    Chúc vui
     
  5. anbinhdo

    anbinhdo Well-Known Member

    Tham gia ngày:
    3/3/10
    Bài viết:
    12,391
    Đã được cảm ơn:
    348
    Nghề nghiệp:
    Điện Tử Viễn Thông
    Nơi ở:
    TP Đà Nẵng - Việt Nam
    Ðề: [Action | Crime | Drama -1Link] The Fast And The Furious 1, 2, 3, 4 BluRay 1080p DTS.MA x264 DXVA - FraMeSToR

    The Fast And The Furious 2006 Tokyo Drift 1080p DTS.MA - FraMeSToR


    [​IMG]


    Mã:
    
    [COLOR="#0000FF"]
    General
    Complete name                    : F:\HD - 1080p\The Fast And The Furious 1, 2, 3, 4 BluRay 1080p DTS.MA x264 DXVA - FraMeSToR\The Fast And The Furious 2006 Tokyo Drift 1080p DTS.MA - FraMeSToR\The Fast And The Furious 2006 Tokyo Drift 1080p DTS.MA - FraMeSToR.mkv
    Format                           : Matroska
    File size                        : 11.3 GiB
    Duration                         : 1h 44mn
    Overall bit rate                 : 15.5 Mbps
    Encoded date                     : UTC 2010-07-02 09:52:03
    Writing application              : mkvmerge v3.3.0 ('Language') built on Mar 24 2010 14:59:24
    Writing library                  : libebml v0.8.0 + libmatroska v0.9.0
    
    Video
    ID                               : 1
    Format                           : AVC
    Format/Info                      : Advanced Video Codec
    Format profile                   : High@L4.1
    Format settings, CABAC           : Yes
    Format settings, ReFrames        : 4 frames
    Format settings, GOP             : M=1, N=24
    Muxing mode                      : Container profile=Unknown@4.1
    Codec ID                         : V_MPEG4/ISO/AVC
    Duration                         : 1h 44mn
    Nominal bit rate                 : 11.2 Mbps
    Width                            : 1 920 pixels
    Height                           : 816 pixels
    Display aspect ratio             : 2.35:1
    Frame rate                       : 23.976 fps
    Color space                      : YUV
    Chroma subsampling               : 4:2:0
    Bit depth                        : 8 bits
    Scan type                        : Progressive
    Bits/(Pixel*Frame)               : 0.298
    Writing library                  : x264 core 93 r1538 bd72d46
    Encoding settings                : cabac=1 / ref=5 / deblock=1:-4:-4 / analyse=0x3:0x113 / me=umh / subme=9 / psy=1 / psy_rd=1.00:0.00 / mixed_ref=1 / me_range=32 / chroma_me=1 / trellis=2 / 8x8dct=1 / cqm=0 / deadzone=21,11 / fast_pskip=1 / chroma_qp_offset=-2 / threads=12 / sliced_threads=0 / nr=0 / decimate=1 / interlaced=0 / constrained_intra=0 / bframes=8 / b_pyramid=1 / b_adapt=2 / b_bias=0 / direct=2 / wpredb=1 / wpredp=2 / keyint=250 / keyint_min=25 / scenecut=40 / intra_refresh=0 / rc_lookahead=40 / rc=2pass / mbtree=1 / bitrate=11205 / ratetol=2.0 / qcomp=0.70 / qpmin=10 / qpmax=51 / qpstep=4 / cplxblur=20.0 / qblur=0.5 / vbv_maxrate=50000 / vbv_bufsize=50000 / ip_ratio=1.40 / aq=1:0.80 / nal_hrd=none
    Language                         : English
    
    Audio #1
    ID                               : 2
    Format                           : DTS
    Format/Info                      : Digital Theater Systems
    Format profile                   : MA
    Codec ID                         : A_DTS
    Duration                         : 1h 44mn
    Bit rate mode                    : Variable
    Channel(s)                       : 6 channels
    Channel positions                : Front: L C R, Side: L R, LFE
    Sampling rate                    : 48.0 KHz
    Bit depth                        : 24 bits
    Language                         : English
    
    Audio #2
    ID                               : 3
    Format                           : AC-3
    Format/Info                      : Audio Coding 3
    Format profile                   : Dolby Digital
    Mode extension                   : CM (complete main)
    Codec ID                         : A_AC3
    Duration                         : 1h 44mn
    Bit rate mode                    : Constant
    Bit rate                         : 192 Kbps
    Channel(s)                       : 2 channels
    Channel positions                : Front: L R
    Sampling rate                    : 48.0 KHz
    Stream size                      : 143 MiB (1%)
    Language                         : English
    
    Text #1
    ID                               : 4
    Format                           : UTF-8
    Codec ID                         : S_TEXT/UTF8
    Codec ID/Info                    : UTF-8 Plain Text
    Language                         : English
    
    Text #2
    ID                               : 5
    Format                           : UTF-8
    Codec ID                         : S_TEXT/UTF8
    Codec ID/Info                    : UTF-8 Plain Text
    Language                         : Dutch
    
    Menu
    00:00:00.000                     : en:00:00:00.000
    00:03:04.434                     : en:00:03:04.434
    00:09:43.500                     : en:00:09:43.500
    00:12:10.688                     : en:00:12:10.688
    00:16:15.391                     : en:00:16:15.391
    00:20:16.841                     : en:00:20:16.841
    00:26:36.470                     : en:00:26:36.470
    00:32:56.850                     : en:00:32:56.850
    00:41:14.305                     : en:00:41:14.305
    00:46:34.834                     : en:00:46:34.834
    00:52:55.255                     : en:00:52:55.255
    00:58:20.122                     : en:00:58:20.122
    01:01:46.244                     : en:01:01:46.244
    01:05:50.488                     : en:01:05:50.488
    01:08:56.090                     : en:01:08:56.090
    01:16:14.612                     : en:01:16:14.612
    01:20:31.410                     : en:01:20:31.410
    01:26:53.250                     : en:01:26:53.250
    01:34:59.944                     : en:01:34:59.944
    01:37:33.848                     : en:01:37:33.848
    
    [/COLOR]
    
    Mã:
    [COLOR="#0000FF"]Ratings: [COLOR="#FF0000"][B]  5,7/10 [/B][/COLOR] from[URL="http://www.imdb.com/title/tt0463985/ratings?ref_=tt_ov_rt"] [U][COLOR="#FF0000"]  83.549 users [/COLOR][/U] [/URL]   
    
    Director:
    Justin Lin
    Writer:
    Chris Morgan
    Stars:
    Lucas Black, Zachery Ty Bryan, Bow Wow 
    
    [COLOR="#FF0000"][B]Lưu ý:[/B][/COLOR] Thông tin được cập nhật vào lúc 2013-03-30 nên có thể đã cũ, vui lòng nhấp vào [URL="http://www.imdb.com/title/tt0463985/?ref_=fn_al_tt_1"][COLOR="#FF0000"][B]đây [/B][/COLOR][/URL] để cập nhật thông tin mới[/COLOR]
    
    thumbs20130330102924.jpg

    1 Link : 11,26G

    Nhấn nút Cảm ơn (dưới chân bài) để thấy link!




    Sub Việt .

    Link tải phim
    [Fshare - Dich vu chia se, luu tru du lieu mien phi tot nhat

    ]Fshare - Dich vu chia se, luu tru du lieu mien phi tot nhat[/url]




    [video=youtube;OkSwjoUHJTw]http://www.youtube.com/watch?v=OkSwjoUHJTw[/video]​

    p/s:
    Share cho anh em đang cần.
     
    fsvnhd and to_pit like this.
  6. anbinhdo

    anbinhdo Well-Known Member

    Tham gia ngày:
    3/3/10
    Bài viết:
    12,391
    Đã được cảm ơn:
    348
    Nghề nghiệp:
    Điện Tử Viễn Thông
    Nơi ở:
    TP Đà Nẵng - Việt Nam
    Ðề: [Action | Crime | Drama -1Link] The Fast And The Furious 1, 2, 3, 4 BluRay 1080p DTS.MA x264 DXVA - FraMeSToR

    The Fast And The Furious 2009 BluRay 1080p DTS.MA x264 DXVA - FraMeSToR


    [​IMG]


    Mã:
    
    [COLOR="#0000FF"]
    General
    Complete name                    : F:\HD - 1080p\The Fast And The Furious 1, 2, 3, 4 BluRay 1080p DTS.MA x264 DXVA - FraMeSToR\The Fast And The Furious 2009 BluRay 1080p DTS.MA x264 DXVA - FraMeSToR\The Fast And The Furious 2009 BluRay 1080p DTS.MA x264 DXVA - FraMeSToR.mkv
    Format                           : Matroska
    File size                        : 13.1 GiB
    Duration                         : 1h 46mn
    Overall bit rate                 : 17.5 Mbps
    Encoded date                     : UTC 2010-07-03 11:44:37
    Writing application              : mkvmerge v3.3.0 ('Language') built on Mar 24 2010 14:59:24
    Writing library                  : libebml v0.8.0 + libmatroska v0.9.0
    
    Video
    ID                               : 1
    Format                           : AVC
    Format/Info                      : Advanced Video Codec
    Format profile                   : High@L4.1
    Format settings, CABAC           : Yes
    Format settings, ReFrames        : 4 frames
    Muxing mode                      : Container profile=Unknown@4.1
    Codec ID                         : V_MPEG4/ISO/AVC
    Duration                         : 1h 46mn
    Nominal bit rate                 : 13.5 Mbps
    Width                            : 1 920 pixels
    Height                           : 800 pixels
    Display aspect ratio             : 2.40:1
    Frame rate                       : 23.976 fps
    Color space                      : YUV
    Chroma subsampling               : 4:2:0
    Bit depth                        : 8 bits
    Scan type                        : Progressive
    Bits/(Pixel*Frame)               : 0.368
    Writing library                  : x264 core 93 r1538 bd72d46
    Encoding settings                : cabac=1 / ref=5 / deblock=1:-4:-4 / analyse=0x3:0x113 / me=umh / subme=10 / psy=1 / psy_rd=1.00:0.00 / mixed_ref=1 / me_range=48 / chroma_me=1 / trellis=2 / 8x8dct=1 / cqm=0 / deadzone=21,11 / fast_pskip=1 / chroma_qp_offset=-2 / threads=12 / sliced_threads=0 / nr=0 / decimate=1 / interlaced=0 / constrained_intra=0 / bframes=8 / b_pyramid=1 / b_adapt=2 / b_bias=0 / direct=2 / wpredb=1 / wpredp=2 / keyint=250 / keyint_min=25 / scenecut=40 / intra_refresh=0 / rc_lookahead=40 / rc=2pass / mbtree=1 / bitrate=13546 / ratetol=2.0 / qcomp=0.70 / qpmin=10 / qpmax=51 / qpstep=4 / cplxblur=20.0 / qblur=0.5 / vbv_maxrate=50000 / vbv_bufsize=50000 / ip_ratio=1.40 / aq=1:0.80 / nal_hrd=none
    Language                         : English
    
    Audio #1
    ID                               : 2
    Format                           : DTS
    Format/Info                      : Digital Theater Systems
    Format profile                   : MA
    Codec ID                         : A_DTS
    Duration                         : 1h 46mn
    Bit rate mode                    : Variable
    Channel(s)                       : 6 channels
    Channel positions                : Front: L C R, Side: L R, LFE
    Sampling rate                    : 48.0 KHz
    Bit depth                        : 24 bits
    Language                         : English
    
    Audio #2
    ID                               : 3
    Format                           : AC-3
    Format/Info                      : Audio Coding 3
    Format profile                   : Dolby Digital
    Mode extension                   : CM (complete main)
    Codec ID                         : A_AC3
    Duration                         : 1h 46mn
    Bit rate mode                    : Constant
    Bit rate                         : 192 Kbps
    Channel(s)                       : 2 channels
    Channel positions                : Front: L R
    Sampling rate                    : 48.0 KHz
    Stream size                      : 147 MiB (1%)
    Language                         : English
    
    Text #1
    ID                               : 4
    Format                           : UTF-8
    Codec ID                         : S_TEXT/UTF8
    Codec ID/Info                    : UTF-8 Plain Text
    Language                         : English
    
    Text #2
    ID                               : 5
    Format                           : UTF-8
    Codec ID                         : S_TEXT/UTF8
    Codec ID/Info                    : UTF-8 Plain Text
    Language                         : Dutch
    
    Menu
    00:00:00.000                     : en:00:00:00.000
    00:07:26.529                     : en:00:07:26.529
    00:11:46.956                     : en:00:11:46.956
    00:16:46.756                     : en:00:16:46.756
    00:24:24.088                     : en:00:24:24.088
    00:29:05.452                     : en:00:29:05.452
    00:34:05.293                     : en:00:34:05.293
    00:37:30.790                     : en:00:37:30.790
    00:46:07.348                     : en:00:46:07.348
    00:53:37.381                     : en:00:53:37.381
    00:58:15.158                     : en:00:58:15.158
    01:04:49.219                     : en:01:04:49.219
    01:07:29.879                     : en:01:07:29.879
    01:12:01.859                     : en:01:12:01.859
    01:14:46.524                     : en:01:14:46.524
    01:20:36.165                     : en:01:20:36.165
    01:25:03.265                     : en:01:25:03.265
    01:29:09.386                     : en:01:29:09.386
    01:35:54.999                     : en:01:35:54.999
    01:39:24.959                     : en:01:39:24.959
    [/COLOR]
    
    Mã:
    [COLOR="#0000FF"]Ratings: [COLOR="#FF0000"][B]  6,5/10  [/B][/COLOR] from[URL="http://www.imdb.com/title/tt1013752/ratings?ref_=tt_ov_rt"] [U][COLOR="#FF0000"]  100.619 users [/COLOR][/U] [/URL]   
    
    
    Director:
    Justin Lin
    Writers:
    Chris Morgan, Gary Scott Thompson (characters)
    Stars:
    Vin Diesel, Paul Walker, Michelle Rodriguez
    
    [COLOR="#FF0000"][B]Lưu ý:[/B][/COLOR] Thông tin được cập nhật vào lúc 2013-03-30 nên có thể đã cũ, vui lòng nhấp vào [URL="http://www.imdb.com/title/tt1013752/?ref_=fn_al_tt_1"][COLOR="#FF0000"][B]đây [/B][/COLOR][/URL] để cập nhật thông tin mới[/COLOR]
    
    thumbs20130330104605.jpg

    1 Link : 13,06 G

    Nhấn nút Cảm ơn (dưới chân bài) để thấy link!




    Sub Việt .

    Link tải phim
    []Fshare - Dich vu chia se, luu tru du lieu mien phi tot nhat Fshare - Dich vu chia se, luu tru du lieu mien phi tot nhat[/url]




    [video=youtube;4CIELQwMjrg]http://www.youtube.com/watch?v=4CIELQwMjrg[/video]​

    p/s:
    Share cho anh em đang cần.
     
    fsvnhd cảm ơn bài này.
  7. nguyenthienbao

    nguyenthienbao New Member

    Tham gia ngày:
    1/3/12
    Bài viết:
    847
    Đã được cảm ơn:
    7
    Ðề: [Action | Crime | Drama -1Link] The Fast And The Furious 1, 2, 3, 4 BluRay 1080p DTS.MA x264 DXVA - FraMeSToR

    một serial phim rất hay, thanks bác chủ
     
  8. chunguno

    chunguno Member

    Tham gia ngày:
    1/11/10
    Bài viết:
    41
    Đã được cảm ơn:
    4
    Ðề: [Action | Crime | Drama -1Link] The Fast And The Furious 1, 2, 3, 4 BluRay 1080p DTS.MA x264 DXVA - FraMeSToR

    Thanks bác .. kho phim của e lại có thêm hàng rồi
     
  9. anbinhdo

    anbinhdo Well-Known Member

    Tham gia ngày:
    3/3/10
    Bài viết:
    12,391
    Đã được cảm ơn:
    348
    Nghề nghiệp:
    Điện Tử Viễn Thông
    Nơi ở:
    TP Đà Nẵng - Việt Nam
    Ðề: [Action | Crime | Drama -1Link] The Fast And The Furious 1, 2, 3, 4 BluRay 1080p DTS.MA x264 DXVA - FraMeSToR

    Hy vong các Bác sưu tầm đủ seri phim này , sắp tới có phần 6 nữa đấy :D
    Chúc vui.
     
  10. body live

    body live Member

    Tham gia ngày:
    22/10/08
    Bài viết:
    46
    Đã được cảm ơn:
    2
    Ðề: [Action | Crime | Drama -1Link] The Fast And The Furious 1, 2, 3, 4 BluRay 1080p DTS.MA x264 DXVA - FraMeSToR

    Nếu như tất cả những phim Bluray được remux theo dạng như bác chủ này..( MKV ) mà vẩn giử nguyên âm thanh DTS-MASTER thì hay biết mấy. Nhưng dù sao củng Thanks..
     

Chia sẻ trang này