[Action | Drama | Fantasy - 1Link] The.Promise.2005.Blu-ray.720p.x264.DD51-mySiLU

Thảo luận trong 'Fshare.vn' bắt đầu bởi anbinhdo, 12/4/13.

  1. anbinhdo

    anbinhdo Well-Known Member

    Tham gia ngày:
    3/3/10
    Bài viết:
    12,391
    Đã được cảm ơn:
    348
    Nghề nghiệp:
    Điện Tử Viễn Thông
    Nơi ở:
    TP Đà Nẵng - Việt Nam
    The.Promise.2005.Blu-ray.720p.x264.DD51-mySiLU


    [​IMG]


    Mã:
    
    [COLOR="#0000FF"]
    General
    Unique ID                                : 196781402680873536583070972561365954695 (0x940AB8373120F9699F73A65441C07087)
    Complete name                            : G:\AN BINH - HD\HD - PHIM 720p\The.Promise.2005.Blu-ray.720p.x264\The.Promise.2005.Blu-ray.720p.x264.DD51-mySiLU.mkv
    Format                                   : Matroska
    Format version                           : Version 1
    File size                                : 6.44 GiB
    Duration                                 : 2h 1mn
    Overall bit rate                         : 7 591 Kbps
    Encoded date                             : UTC 2008-12-18 11:34:14
    
    
    Writing application                      : mkvmerge v2.4.0 ('Fumbling Towards Ecstasy') built on Oct 11 2008 20:13:15
    Writing library                          : libebml v0.7.7 + libmatroska v0.8.1
    
    Video
    ID                                       : 1
    Format                                   : AVC
    Format/Info                              : Advanced Video Codec
    Format profile                           : High@L4.1
    Format settings, CABAC                   : Yes
    Format settings, ReFrames                : 5 frames
    Codec ID                                 : V_MPEG4/ISO/AVC
    Duration                                 : 2h 1mn
    Bit rate                                 : 5 438 Kbps
    Width                                    : 1 280 pixels
    Height                                   : 552 pixels
    Display aspect ratio                     : 2.35:1
    Frame rate mode                          : Constant
    Frame rate                               : 23.976 fps
    Color space                              : YUV
    Chroma subsampling                       : 4:2:0
    Bit depth                                : 8 bits
    Scan type                                : Progressive
    Bits/(Pixel*Frame)                       : 0.321
    Stream size                              : 4.49 GiB (70%)
    Title                                    : www.MySiLU.com
    Writing library                          : x264 core 65 r1051M 549cc55
    Encoding settings                        : cabac=1 / ref=5 / deblock=1:-2:-1 / analyse=0x3:0x113 / me=umh / subme=6 / psy_rd=1.0:0.0 / mixed_ref=1 / me_range=16 / chroma_me=1 / trellis=1 / 8x8dct=1 / cqm=2 / deadzone=21,11 / chroma_qp_offset=-2 / threads=6 / nr=0 / decimate=0 / mbaff=0 / bframes=3 / b_pyramid=1 / b_adapt=2 / b_bias=0 / direct=3 / wpredb=1 / keyint=250 / keyint_min=25 / scenecut=40(pre) / rc=2pass / bitrate=5438 / ratetol=1.0 / qcomp=0.60 / qpmin=10 / qpmax=51 / qpstep=4 / cplxblur=20.0 / qblur=0.5 / vbv_maxrate=50000 / vbv_bufsize=50000 / ip_ratio=1.40 / pb_ratio=1.30 / aq=1:1.00
    Language                                 : Chinese
    Default                                  : Yes
    Forced                                   : No
    
    Audio #1
    ID                                       : 2
    Format                                   : AC-3
    Format/Info                              : Audio Coding 3
    Mode extension                           : CM (complete main)
    Format settings, Endianness              : Big
    Codec ID                                 : A_AC3
    Duration                                 : 2h 1mn
    Bit rate mode                            : Constant
    Bit rate                                 : 640 Kbps
    Channel(s)                               : 6 channels
    Channel positions                        : Front: L C R, Side: L R, LFE
    Sampling rate                            : 48.0 KHz
    Bit depth                                : 16 bits
    Compression mode                         : Lossy
    Stream size                              : 556 MiB (8%)
    Title                                    : DD51 640 Kbps Mandarin
    Language                                 : Chinese
    Default                                  : Yes
    Forced                                   : No
    
    Audio #2
    ID                                       : 3
    Format                                   : DTS
    Format/Info                              : Digital Theater Systems
    Mode                                     : 16
    Format settings, Endianness              : Big
    Codec ID                                 : A_DTS
    Duration                                 : 2h 1mn
    Bit rate mode                            : Constant
    Bit rate                                 : 1 509 Kbps
    Channel(s)                               : 6 channels
    Channel positions                        : Front: L C R, Side: L R, LFE
    Sampling rate                            : 48.0 KHz
    Bit depth                                : 16 bits
    Compression mode                         : Lossy
    Stream size                              : 1.28 GiB (20%)
    Title                                    : DTScore 1536 Kbps Cantonese
    Language                                 : Chinese
    Default                                  : No
    Forced                                   : No
    
    [/COLOR]
    
    Mã:
    [COLOR="#0000FF"]Ratings: [COLOR="#FF0000"][B]  5,7/10  [/B][/COLOR] from[URL="http://www.imdb.com/title/tt0417976/ratings?ref_=tt_ov_rt"] [U][COLOR="#FF0000"]6.961 users [/COLOR][/U] [/URL]   
    
    Director:
    Kaige Chen
    Writer:
    Kaige Chen
    Stars:
    Dong-gun Jang, Hiroyuki Sanada, Cecilia Cheung 
    
    [COLOR="#FF0000"][B]Lưu ý:[/B][/COLOR] Thông tin được cập nhật vào lúc 2013-04-12 nên có thể đã cũ, vui lòng nhấp vào [URL="http://www.imdb.com/title/tt0417976/?ref_=fn_al_tt_1"][COLOR="#FF0000"][B]đây [/B][/COLOR][/URL] để cập nhật thông tin mới[/COLOR]
    
    The.Promise.2005.Blu-ray.720p.x264.DD51-mySiLU.mkv_thumbs_[2013.04.12_19.28.28].jpg

    1 Link : 6.44 G

    Nhấn nút Cảm ơn (dưới chân bài) để thấy link!




    Sub Việt .





    [video=youtube;ASix-v_-P2k]http://www.youtube.com/watch?v=ASix-v_-P2k[/video]​

    p/s:
    Share cho anh em đang cần/lưu :D
    Chúc vui!
     
  2. Karo

    Karo Member

    Tham gia ngày:
    28/12/09
    Bài viết:
    79
    Đã được cảm ơn:
    1
    Nơi ở:
    Đại Dương
    Ðề: [Action | Drama | Fantasy - 1Link] The.Promise.2005.Blu-ray.720p.x264.DD51-mySiLU

    cái này die hửh bác! e ko kéo dc!
     
  3. anbinhdo

    anbinhdo Well-Known Member

    Tham gia ngày:
    3/3/10
    Bài viết:
    12,391
    Đã được cảm ơn:
    348
    Nghề nghiệp:
    Điện Tử Viễn Thông
    Nơi ở:
    TP Đà Nẵng - Việt Nam
    Ðề: [Action | Drama | Fantasy - 1Link] The.Promise.2005.Blu-ray.720p.x264.DD51-mySiLU

    Link mới và dow bình thường mà Bác :D . Bác thử xem lại thao tác dowload vậy nhé!
    Chúc may mắn
     
  4. kyuzo07

    kyuzo07 Member

    Tham gia ngày:
    21/8/09
    Bài viết:
    195
    Đã được cảm ơn:
    3
    Phim thì ko nói làm gì.
    Cái bản sub bên trên dịch đúng là bó tay. :|, danh xưng tùm lum luôn...
     

Chia sẻ trang này