Among Ravens (2014) HDRip XviD AC3 EVO

Thảo luận trong 'mHD, SD' bắt đầu bởi RobertoWarez, 14/7/15.

  1. RobertoWarez

    RobertoWarez Active Member

    Tham gia ngày:
    26/9/11
    Bài viết:
    13,331
    Đã được cảm ơn:
    31
    Điểm thành tích:
    38
    Tiền:
    2,023 CR

    Among Ravens (2014) HDRip XviD AC3 EVO
    File Size: 1.39 GB


    [​IMG]

    INFO:
    Mã:
    General
    Format                         : AVI
    Format/Info                    : Audio Video Interleave
    File size                      : 1.38 GiB
    Duration                       : 1h 43mn
    Overall bit rate               : 1 905 Kbps
    Writing library                : VirtualDub build 32593/release
    
    Video
    ID                             : 0
    Format                         : MPEG-4 Visual
    Codec ID                       : XVID
    Codec ID/Hint                  : XviD
    Duration                       : 1h 43mn
    Bit rate                       : 1 437 Kbps
    Width                          : 720 pixels
    Height                         : 400 pixels
    Display aspect ratio           : 16:9
    Frame rate                     : 23.976 fps
    Color space                    : YUV
    Chroma subsampling             : 4:2:0
    Compression mode               : Lossy
    Bits/(Pixel*Frame)             : 0.208
    Stream size                    : 1.04 GiB (75%)
    
    Audio
    ID                             : 1
    Format                         : AC-3
    Format/Info                    : Audio Coding 3
    Codec ID                       : 2000
    Duration                       : 1h 43mn
    Bit rate mode                  : Constant
    Bit rate                       : 384 Kbps
    Channel count                  : 6 channels
    Sampling rate                  : 48.0 KHz
    Compression mode               : Lossy
    Stream size                    : 284 MiB (20%)
    Alignment                      : Aligned on interleaves
    
    iMDB:
    Mã:
    http://www.imdb.com/title/tt2328696/
    [​IMG]

    Single Extraction | No Password | Interchangeable Links | Working 100%

    Mã:
    http://uploaded.net/file/evzlsxt8/Among.Ravens.2014.HDRip.EVO.rar
    http://rapidgator.net/file/37d6fcfb08eb8410873e4caf1b639d44/Among.Ravens.2014.HDRip.EVO.rar.html
    http://nitroflare.com/view/B53247D45B76B0E/Among.Ravens.2014.HDRip.EVO.rar
    http://k2s.cc/file/85d6184b1ad50/Among.Ravens.2014.HDRip.EVO.rar
    
     

Chia sẻ trang này