[Fshare] Ariana Grande - I Have Nothing (Live at the White House Women of Soul 2014) [HDTV 1080p DD5.1]

Thảo luận trong 'US-EU' bắt đầu bởi nkt198, 10/1/16.

  1. nkt198

    nkt198 Well-Known Member

    Tham gia ngày:
    10/5/15
    Bài viết:
    636
    Đã được cảm ơn:
    8,106
    [​IMG]
    Mã:
    General
          
          Format : Matroska
          Format version : Version 4 / Version 2
    
    
    	

    File size : 223 MiB

    Duration : 3mn 35s Overall bit rate : 8 676 Kbps Video #1 ID : 1 Format : AVC Format/Info : Advanced Video Codec Format profile : High@L5.0 Format settings, CABAC : Yes Format settings, ReFrames : 5 frames Codec ID : V_MPEG4/ISO/AVC Duration : 3mn 35s Bit rate : 8 119 Kbps Width : 1 920 pixels Height : 1 080 pixels Display aspect ratio : 16:9 Frame rate mode : Constant Frame rate : 29.970 fps Color space : YUV Chroma subsampling : 4:2:0 Bit depth : 8 bits Scan type : Progressive Bits/(Pixel*Frame) : 0.131 Stream size : 209 MiB (94%) Writing library : x264 core 148 r2638 7599210 Encoding settings : cabac=1 / ref=5 / deblock=1:0:0 / analyse=0x3:0x133 / me=umh / subme=7 / psy=1 / psy_rd=1.00:0.00 / mixed_ref=1 / me_range=32 / chroma_me=1 / trellis=2 / 8x8dct=1 / cqm=0 / deadzone=21,11 / fast_pskip=1 / chroma_qp_offset=-2 / threads=6 / lookahead_threads=1 / sliced_threads=0 / nr=0 / decimate=1 / interlaced=0 / bluray_compat=0 / constrained_intra=0 / bframes=3 / b_pyramid=2 / b_adapt=2 / b_bias=0 / direct=3 / weightb=1 / open_gop=0 / weightp=2 / keyint=300 / keyint_min=29 / scenecut=40 / intra_refresh=0 / rc_lookahead=50 / rc=crf / mbtree=1 / crf=18.0 / qcomp=0.60 / qpmin=0 / qpmax=69 / qpstep=4 / ip_ratio=1.40 / aq=1:1.00 Default : Yes Forced : No Audio #2 ID : 2 Format : AC-3 Format/Info : Audio Coding 3 Mode extension : CM (complete main) Format settings, Endianness : Big Codec ID : A_AC3 Duration : 3mn 35s Bit rate mode : Constant Bit rate : 384 Kbps Channel(s) : 6 channels Channel positions : Front: L C R, Side: L R, LFE Sampling rate : 48.0 KHz Bit depth : 16 bits Compression mode : Lossy Delay relative to video : 34ms Stream size : 9.88 MiB (4%) Default : Yes Forced : No
    Fshare
    Nhấn nút Cảm ơn (dưới chân bài) để thấy link!
     
    kimthanhtn, sawath, 2158 and 10 others like this.
  2. arianarares

    arianarares New Member

    Tham gia ngày:
    24/12/19
    Bài viết:
    1
    Đã được cảm ơn:
    1
    thanks
     
    2158 cảm ơn bài này.

Chia sẻ trang này