BBC Richard Hammond's Invisible Worlds 2010 ViE 1080p BluRay DD2.0 x264-HDS ~ Thế Giới Vô Hình

Thảo luận trong 'Phim Tài Liệu - Thuyết Minh' bắt đầu bởi hbinhlove2003, 22/3/20.

  1. hbinhlove2003

    hbinhlove2003 Well-Known Member

    Tham gia ngày:
    22/8/09
    Bài viết:
    20,355
    Đã được cảm ơn:
    33,772
    Giới tính:
    Nam
    Nghề nghiệp:
    IT
    Nơi ở:
    VN
    BBC Richard Hammond's Invisible Worlds 2010 ViE 1080p BluRay DD2.0 x264-HD

    Thế Giới Vô Hình


    [​IMG]

    Cái chớp mắt xảy ra khoảng 50 phần nghìn giây. Nhưng bộ não con người phải mất đến 150 phần nghìn giây để xử lý những gì ta thấy. Trong vài phần nghìn giây lại có những điều phi thường xảy ra vượt quá sự giới hạn của ta. Vậy làm sao ta có thể vượt qua giới hạn tốc độ này? Sử dụng máy quay tốc độ cao tiên tiến nhất, Richard dấn thân vào cuộc hành trình vượt quá giới hạn của mắt người, để khám phá những bí mật ẩn giấu trên hành tinh chúng ta. Ở thế giới mà lớp không khí mỏng có thể làm vỡ đá, nước lại xé rách kim loại. Một thế giới mà thứ nhanh nhất trên Trái đất lại nằm ngay dưới chân ta. Và màn trình diễn ngoạn mục nhất của tự nhiên được ta chộp được trên ống kính mà trước đó nhiều người đã cả gan tuyên bố nó không tồn tại. (Hoàng Hôn)

    Mã:
    Complete name                  : BBC.Richard.Hammond's.Invisible.Worlds.2010.ViE.1080p.BluRay.DD2.0.x264-HDS
    Format                         : Matroska
    Format version                 : Version 2
    File size                      : 4.51 GiB
    Duration                       : 48 min 15 s
    Overall bit rate               : 13.4 Mb/s
    Movie name                     : Richard.Hammond's.Invisible.Worlds.EP01.2010.1080p.BluRay.DD2.0.x264-HDS
    Encoded date                   : UTC 2020-02-23 14:05:04
    Writing application            : mkvmerge v5.5.0 ('Healer') built on Apr  6 2012 21:43:24
    
    
    Writing library                : libebml v1.2.3 + libmatroska v1.3.0
    Video
    ID                             : 2
    Format                         : AVC
    Format/Info                    : Advanced Video Codec
    Format profile                 : High@L4.1
    Format settings, CABAC         : Yes
    Format settings, RefFrames     : 4 frames
    Muxing mode                    : Header stripping
    Codec ID                       : V_MPEG4/ISO/AVC
    Duration                       : 48 min 15 s
    Bit rate                       : 12.1 Mb/s
    Width                          : 1 920 pixels
    Height                         : 1 080 pixels
    Display aspect ratio           : 16:9
    Frame rate mode                : Constant
    Frame rate                     : 25.000 FPS
    Color space                    : YUV
    Chroma subsampling             : 4:2:0
    Bit depth                      : 8 bits
    Scan type                      : Progressive
    Bits/(Pixel*Frame)             : 0.233
    Stream size                    : 4.08 GiB (90%)
    Title                          : GalenMao(StoneStudio)
    Default                        : Yes
    Forced                         : No
    Statistics Tags Issue          : mkvmerge v8.3.0 ('Over the Horizon') 64bit 2015-09-13 21:50:53 / mkvmerge v5.5.0 ('Healer') built on Apr  6 2012 21:43:24 2020-02-23 14:05:04
    FromStats_BitRate              : 12311331
    FromStats_Duration             : 00:48:15.960000000
    FromStats_FrameCount           : 72399
    FromStats_StreamSize           : 4456640609
    Audio #1
    ID                             : 1
    Format                         : AC-3
    Format/Info                    : Audio Coding 3
    Format settings, Endianness    : Big
    Muxing mode                    : Header stripping
    Codec ID                       : A_AC3
    Duration                       : 48 min 15 s
    Bit rate mode                  : Constant
    Bit rate                       : 640 kb/s
    Channel(s)                     : 2 channels
    Channel positions              : Front: L R
    Sampling rate                  : 48.0 kHz
    Frame rate                     : 31.250 FPS (1536 SPF)
    Bit depth                      : 16 bits
    Compression mode               : Lossy
    Stream size                    : 221 MiB (5%)
    Title                          : Thuyết Minh VTV l Vinadot@Present
    Language                       : Vietnamese
    Service kind                   : Complete Main
    Default                        : Yes
    Forced                         : Yes
    Audio #2
    ID                             : 3
    Format                         : AC-3
    Format/Info                    : Audio Coding 3
    Format settings, Endianness    : Big
    Muxing mode                    : Header stripping
    Codec ID                       : A_AC3
    Duration                       : 48 min 15 s
    Bit rate mode                  : Constant
    Bit rate                       : 384 kb/s
    Channel(s)                     : 2 channels
    Channel positions              : Front: L R
    Sampling rate                  : 48.0 kHz
    Frame rate                     : 31.250 FPS (1536 SPF)
    Bit depth                      : 16 bits
    Compression mode               : Lossy
    Stream size                    : 133 MiB (3%)
    Title                          : English Dolby Digital Audio 2.0
    Language                       : English
    Service kind                   : Complete Main
    Default                        : No
    Forced                         : No
    Statistics Tags Issue          : mkvmerge v8.3.0 ('Over the Horizon') 64bit 2015-09-13 21:50:53 / mkvmerge v5.5.0 ('Healer') built on Apr  6 2012 21:43:24 2020-02-23 14:05:04
    FromStats_BitRate              : 384000
    FromStats_Duration             : 00:48:13.984000000
    FromStats_FrameCount           : 90437
    FromStats_StreamSize           : 138911232
    Text #1
    ID                             : 4
    Format                         : PGS
    Muxing mode                    : zlib
    Codec ID                       : S_HDMV/PGS
    Codec ID/Info                  : Picture based subtitle format used on BDs/HD-DVDs
    Title                          : English PGS
    Language                       : English
    Default                        : Yes
    Forced                         : No
    Statistics Tags Issue          : mkvmerge v8.3.0 ('Over the Horizon') 64bit 2015-09-13 21:50:53 / mkvmerge v5.5.0 ('Healer') built on Apr  6 2012 21:43:24 2020-02-23 14:05:04
    FromStats_BitRate              : 11351
    FromStats_Duration             : 00:47:27.345000000
    FromStats_FrameCount           : 948
    FromStats_StreamSize           : 4040305
    Text #2
    ID                             : 5
    Format                         : PGS
    Muxing mode                    : zlib
    Codec ID                       : S_HDMV/PGS
    Codec ID/Info                  : Picture based subtitle format used on BDs/HD-DVDs
    Title                          : Traditional Chinese PGS
    Language                       : Chinese
    Default                        : No
    Forced                         : No
    Statistics Tags Issue          : mkvmerge v8.3.0 ('Over the Horizon') 64bit 2015-09-13 21:50:53 / mkvmerge v5.5.0 ('Healer') built on Apr  6 2012 21:43:24 2020-02-23 14:05:04
    FromStats_BitRate              : 17073
    FromStats_Duration             : 00:47:27.345000000
    FromStats_FrameCount           : 948
    FromStats_StreamSize           : 6076671
    Text #3
    ID                             : 6
    Format                         : PGS
    Muxing mode                    : zlib
    Codec ID                       : S_HDMV/PGS
    Codec ID/Info                  : Picture based subtitle format used on BDs/HD-DVDs
    Title                          : Simplified Chinese PGS
    Language                       : Chinese
    Default                        : No
    Forced                         : No
    Statistics Tags Issue          : mkvmerge v8.3.0 ('Over the Horizon') 64bit 2015-09-13 21:50:53 / mkvmerge v5.5.0 ('Healer') built on Apr  6 2012 21:43:24 2020-02-23 14:05:04
    FromStats_BitRate              : 15201
    FromStats_Duration             : 00:47:27.345000000
    FromStats_FrameCount           : 948
    FromStats_StreamSize           : 5410610
    
    [​IMG][​IMG][​IMG][​IMG][​IMG][​IMG][​IMG][​IMG]

    Nhấn nút Cảm ơn (dưới chân bài) để thấy link!


    Các Phim khoa học TM khác download tại đây
    https://www.fshare.vn/folder/Z7OLN6PO2W7Z
     

Chia sẻ trang này