[Tenlua] BBC Wonders of the Monsoon (2014) All Bluray Version - Những Kì Quan Của Gió Mùa

Thảo luận trong 'Phim tài liệu - Documentaries' bắt đầu bởi hoaitrung, 6/1/15.

  1. hoaitrung

    hoaitrung Well-Known Member

    Tham gia ngày:
    13/12/09
    Bài viết:
    2,552
    Đã được cảm ơn:
    8,112
    Điểm thành tích:
    113
    Giới tính:
    Nữ
    Nghề nghiệp:
    HD Documentaries
    Nơi ở:
    Việt nam
    Web:
    Tiền:
    3,649 CR
    BBC Wonders of the Monsoon (2014) All Bluray Version
    Những Kì Quan Của Gió Mùa

    Bluray remux - 1080p - 720p - mHD
    Trọn Bộ 5 tập - Phụ Đề Việt Ngữ - Anh Ngữ

    [​IMG]

    Kỳ lạ và quyến rũ. Động vật hoang dã và các nền văn minh Nam Á đã được hình thành trong lòng hệ thống khí hậu lớn nhất trên Trái đất: Mưa mùa. Tất cả sự sống chịu chi phối bởi hệ thống thời tiết điên cuồng này. Từ bờ biển phía Bắc nước Úc tới đỉnh cao nhất của dãy Himalaya, từ vùng xa mạc Bắc Ấn Độ đến khu rừng nhiệt đới xanh mướt Borneo. Loạt phim này sẽ dẫn chúng ta bước chân vào vùng đất của mưa mùa.


    1_ Khắc khoải chờ mưa - Waiting for the rains
    2_ Ngập lụt - Delude
    3_ Hạn hán - The Drought
    4_ Những kẻ bơ vơ - Strange Castaways
    5_ Con người trong vùng mưa mùa - People of the Monsoon


    Phụ đề Việt ngữ : Anabas
    Sync phụ đề : HoaiTrung - KhoHD


    [​IMG]

    [​IMG]

    [​IMG]

    [​IMG]

    [​IMG]

    [​IMG]

    [​IMG]

    [​IMG]

    [​IMG]

    [​IMG]

    [​IMG]

    [​IMG]

    [​IMG]

    [​IMG]

    [​IMG]

    [​IMG]

    [​IMG]

    Mã:
    Wonders.Of.The.Monsoon.S01E01.Bluray.Remux.PCM-KhoHD.m2ts
    Format                                   : BDAV
    Format/Info                              : Blu-ray Video
    File size                                : 11.9 GiB
    Duration                                 : 59mn 17s
    Overall bit rate mode                    : Variable
    Overall bit rate                         : 28.7 Mbps
    Maximum Overall bit rate                 : 48.0 Mbps
    Video
    ID                                       : 4113 (0x1011)
    Menu ID                                  : 1 (0x1)
    Format                                   : AVC
    Format/Info                              : Advanced Video Codec
    Format profile                           : High@L4.1
    Format settings, CABAC                   : Yes
    Format settings, ReFrames                : 4 frames
    Codec ID                                 : 27
    Duration                                 : 59mn 17s
    Bit rate mode                            : Variable
    Bit rate                                 : 25.3 Mbps
    Maximum bit rate                         : 39.0 Mbps
    Width                                    : 1 920 pixels
    Height                                   : 1 080 pixels
    Display aspect ratio                     : 16:9
    Frame rate                               : 25.000 fps
    Standard                                 : PAL
    Color space                              : YUV
    Chroma subsampling                       : 4:2:0
    Bit depth                                : 8 bits
    Scan type                                : MBAFF
    Bits/(Pixel*Frame)                       : 0.488
    Stream size                              : 10.5 GiB (88%)
    Color primaries                          : BT.709
    Transfer characteristics                 : BT.709
    Matrix coefficients                      : BT.709
    Audio
    ID                                       : 4352 (0x1100)
    Menu ID                                  : 1 (0x1)
    Format                                   : PCM
    Format settings, Endianness              : Big
    Format settings, Sign                    : Signed
    Muxing mode                              : Blu-ray
    Codec ID                                 : 128
    Duration                                 : 59mn 17s
    Bit rate mode                            : Constant
    Bit rate                                 : 2 304 Kbps
    Channel(s)                               : 2 channels
    Channel positions                        : Front: L R
    Sampling rate                            : 48.0 KHz
    Bit depth                                : 24 bits
    Stream size                              : 977 MiB (8%)
    Text
    ID                                       : 4608 (0x1200)
    Menu ID                                  : 1 (0x1)
    Format                                   : PGS
    Codec ID                                 : 144
    Delay relative to video                  : 4s 440ms
    --------------
    Wonders of the Monsoon S01E01 Waiting for the Rains 2014 720p BluRay FLAC 2.0 x264-DON-KhoHD.mkv
    Format                                   : Matroska
    Format version                           : Version 4 / Version 2
    File size                                : 4.18 GiB
    Duration                                 : 59mn 17s
    Overall bit rate mode                    : Variable
    Overall bit rate                         : 10.1 Mbps
    Movie name                               : Encoded  by  DON  2015
    Encoded date                             : UTC 2015-01-02 08:48:18
    Writing application                      : mkvmerge v7.4.0 ('Circles') 64bit built on Dec 12 2014 12:19:56
    Writing library                          : libebml v1.3.0 + libmatroska v1.4.1
    DURATION                                 : 00:58:33.680000000
    NUMBER_OF_FRAMES                         : 842
    NUMBER_OF_BYTES                          : 3616379
    _STATISTICS_WRITING_APP                  : mkvmerge v7.4.0 ('Circles') 64bit built on Dec 12 2014 12:19:56
    _STATISTICS_WRITING_DATE_UTC             : 2015-01-02 08:48:18
    _STATISTICS_TAGS                         : BPS DURATION NUMBER_OF_FRAMES NUMBER_OF_BYTES
    Video
    ID                                       : 1
    Format                                   : AVC
    Format/Info                              : Advanced Video Codec
    Format profile                           : High@L4.1
    Format settings, CABAC                   : Yes
    Format settings, ReFrames                : 7 frames
    Codec ID                                 : V_MPEG4/ISO/AVC
    Duration                                 : 59mn 17s
    Width                                    : 1 280 pixels
    Height                                   : 720 pixels
    Display aspect ratio                     : 16:9
    Frame rate mode                          : Constant
    Frame rate                               : 25.000 fps
    Color space                              : YUV
    Chroma subsampling                       : 4:2:0
    Bit depth                                : 8 bits
    Scan type                                : Progressive
    Title                                    : DON  2015
    Writing library                          : x264 core 133 r2334 a3ac64b
    Encoding settings                        : cabac=1 / ref=7 / deblock=1:-3:-3 / analyse=0x3:0x113 / me=umh / subme=10 / psy=1 / psy_rd=1.00:0.08 / mixed_ref=1 / me_range=24 / chroma_me=1 / trellis=2 / 8x8dct=1 / cqm=0 / deadzone=21,11 / fast_pskip=0 / chroma_qp_offset=-3 / threads=6 / lookahead_threads=1 / sliced_threads=0 / nr=0 / decimate=0 / interlaced=0 / bluray_compat=0 / constrained_intra=0 / bframes=7 / b_pyramid=2 / b_adapt=2 / b_bias=0 / direct=3 / weightb=1 / open_gop=0 / weightp=2 / keyint=250 / keyint_min=25 / scenecut=40 / intra_refresh=0 / rc_lookahead=50 / rc=crf / mbtree=1 / crf=16.5 / qcomp=0.70 / qpmin=0 / qpmax=69 / qpstep=4 / vbv_maxrate=50000 / vbv_bufsize=60000 / crf_max=0.0 / nal_hrd=none / ip_ratio=1.40 / aq=1:0.80
    Language                                 : English
    Default                                  : Yes
    Forced                                   : No
    DURATION                                 : 00:59:17.440000000
    NUMBER_OF_FRAMES                         : 88936
    NUMBER_OF_BYTES                          : 4159613412
    _STATISTICS_WRITING_APP                  : mkvmerge v7.4.0 ('Circles') 64bit built on Dec 12 2014 12:19:56
    _STATISTICS_WRITING_DATE_UTC             : 2015-01-02 08:48:18
    _STATISTICS_TAGS                         : BPS DURATION NUMBER_OF_FRAMES NUMBER_OF_BYTES
    Audio
    ID                                       : 2
    Format                                   : FLAC
    Format/Info                              : Free Lossless Audio Codec
    Codec ID                                 : A_FLAC
    Duration                                 : 59mn 17s
    Bit rate mode                            : Variable
    Channel(s)                               : 2 channels
    Sampling rate                            : 48.0 KHz
    Bit depth                                : 16 bits
    Title                                    : DON  2015
    Writing library                          : Lavf52.84.0
    Language                                 : English
    Default                                  : Yes
    Forced                                   : No
    Text
    ID                                       : 3
    Format                                   : PGS
    Muxing mode                              : zlib
    Codec ID                                 : S_HDMV/PGS
    Codec ID/Info                            : The same subtitle format used on BDs/HD-DVDs
    Title                                    : DON  2015
    Language                                 : English
    Default                                  : Yes
    Forced                                   : No
    Menu
    00:00:00.000                             : en:00:00:00.000
    00:12:08.200                             : en:00:12:08.200
    00:24:38.480                             : en:00:24:38.480
    00:50:54.000                             : en:00:50:54.000
    ----------------------------
    Wonders.Of.The.Monsoon.S01E01.mHD.x264-KhoHD.mkv
    Format                                   : Matroska
    Format version                           : Version 4 / Version 2
    File size                                : 1.41 GiB
    Duration                                 : 58mn 47s
    Overall bit rate                         : 3 430 Kbps
    Encoded date                             : UTC 2015-01-06 01:19:25
    Writing application                      : mkvmerge v7.4.0 ('Circles') 64bit built on Dec 12 2014 12:19:56
    Writing library                          : libebml v1.3.0 + libmatroska v1.4.1
    DURATION                                 : 00:58:47.936000000
    NUMBER_OF_FRAMES                         : 110248
    NUMBER_OF_BYTES                          : 84670464
    _STATISTICS_WRITING_APP                  : mkvmerge v7.4.0 ('Circles') 64bit built on Dec 12 2014 12:19:56
    _STATISTICS_WRITING_DATE_UTC             : 2015-01-06 01:19:25
    _STATISTICS_TAGS                         : BPS DURATION NUMBER_OF_FRAMES NUMBER_OF_BYTES
    Video
    ID                                       : 1
    Format                                   : AVC
    Format/Info                              : Advanced Video Codec
    Format profile                           : High@L4.1
    Format settings, CABAC                   : Yes
    Format settings, ReFrames                : 5 frames
    Codec ID                                 : V_MPEG4/ISO/AVC
    Duration                                 : 58mn 47s
    Bit rate                                 : 3 170 Kbps
    Width                                    : 1 280 pixels
    Height                                   : 720 pixels
    Display aspect ratio                     : 16:9
    Frame rate mode                          : Constant
    Frame rate                               : 25.000 fps
    Color space                              : YUV
    Chroma subsampling                       : 4:2:0
    Bit depth                                : 8 bits
    Scan type                                : Progressive
    Bits/(Pixel*Frame)                       : 0.138
    Stream size                              : 1.30 GiB (92%)
    Title                                    : KhoHD
    Writing library                          : x264 core 142 r2479 dd79a61
    Encoding settings                        : cabac=1 / ref=5 / deblock=1:0:0 / analyse=0x3:0x113 / me=umh / subme=8 / psy=1 / psy_rd=1.00:0.00 / mixed_ref=1 / me_range=16 / chroma_me=1 / trellis=1 / 8x8dct=1 / cqm=0 / deadzone=21,11 / fast_pskip=1 / chroma_qp_offset=-2 / threads=12 / lookahead_threads=2 / sliced_threads=0 / nr=0 / decimate=1 / interlaced=0 / bluray_compat=0 / constrained_intra=0 / bframes=3 / b_pyramid=2 / b_adapt=2 / b_bias=0 / direct=3 / weightb=1 / open_gop=0 / weightp=2 / keyint=250 / keyint_min=25 / scenecut=40 / intra_refresh=0 / rc_lookahead=50 / rc=crf / mbtree=1 / crf=21.0 / qcomp=0.60 / qpmin=0 / qpmax=69 / qpstep=4 / ip_ratio=1.40 / aq=1:1.00
    Language                                 : English
    Default                                  : Yes
    Forced                                   : No
    Audio
    ID                                       : 2
    Format                                   : AC-3
    Format/Info                              : Audio Coding 3
    Mode extension                           : CM (complete main)
    Format settings, Endianness              : Big
    Codec ID                                 : A_AC3
    Duration                                 : 58mn 47s
    Bit rate mode                            : Constant
    Bit rate                                 : 192 Kbps
    Channel(s)                               : 2 channels
    Channel positions                        : Front: L R
    Sampling rate                            : 48.0 KHz
    Bit depth                                : 16 bits
    Compression mode                         : Lossy
    Stream size                              : 80.7 MiB (6%)
    Language                                 : English
    Default                                  : Yes
    Forced                                   : No
      

    Wonders Of The Monsoon S01 Bluray Remux PCM-KhoHD (58.2 GB)
    Wonders of the Monsoon 2014 720p BluRay FLAC 2.0 x264-DON (19.3 GB)
    Wonders Of The Monsoon 2014 mHD x264-KhoHD (7.38 GB)

    Link tải phim
    Nhấn nút Cảm ơn (dưới chân bài) để thấy link!

    Bản 1080p sẽ bổ sung sau!

     
  2. huyxnguyen

    huyxnguyen Well-Known Member

    Tham gia ngày:
    26/1/11
    Bài viết:
    2,795
    Đã được cảm ơn:
    480
    Điểm thành tích:
    83
    Tiền:
    3,467 CR
    Ðề: BBC Wonders of the Monsoon (2014) All Bluray Version - Những Kì Quan Của Gió Mùa

    Chờ bản 1080p của bác hoaitrung :)
     
  3. TSH6506

    TSH6506 Active Member

    Tham gia ngày:
    16/9/12
    Bài viết:
    102
    Đã được cảm ơn:
    39
    Điểm thành tích:
    28
    Tiền:
    704 CR
    Thank you for sharing the video, Tran Hoai Trung.
     
  4. Alabama

    Alabama New Member

    Tham gia ngày:
    17/6/10
    Bài viết:
    964
    Đã được cảm ơn:
    11
    Điểm thành tích:
    0
    Tiền:
    790 CR
    Ðề: BBC Wonders of the Monsoon (2014) All Bluray Version - Những Kì Quan Của Gió Mùa

    Host chứa bộ này bị sao í, em kéo từ hôm qua tới giờ mà toàn dừng ở phân nữa, tài khoản free nên cứ phải down lại từ đầu.
     
  5. hoaitrung

    hoaitrung Well-Known Member

    Tham gia ngày:
    13/12/09
    Bài viết:
    2,552
    Đã được cảm ơn:
    8,112
    Điểm thành tích:
    113
    Giới tính:
    Nữ
    Nghề nghiệp:
    HD Documentaries
    Nơi ở:
    Việt nam
    Web:
    Tiền:
    3,649 CR
    Ðề: BBC Wonders of the Monsoon (2014) All Bluray Version - Những Kì Quan Của Gió Mùa

    Mình thấy có nhiều lượt tải thành công mà. Bạn thử lại vào lúc khác xem sao nha. Dùng tk free mà chịu khó cày cuốc quá, bạn thật kiên nhẫn đó.

    Tập 5 bản mHD bị lỗi mình đã reup bản mới ok nha bà con!
     
    bopdung92, hh09 and anhvusgtt like this.
  6. Alabama

    Alabama New Member

    Tham gia ngày:
    17/6/10
    Bài viết:
    964
    Đã được cảm ơn:
    11
    Điểm thành tích:
    0
    Tiền:
    790 CR
    Ðề: BBC Wonders of the Monsoon (2014) All Bluray Version - Những Kì Quan Của Gió Mùa

    Em down bản 720p, nó nằm trên server S13, 4 ngày rồi em kéo tới kéo lui vẫn đứng giữa chừng.
     
    hh09 cảm ơn bài này.
  7. hoang_thuy

    hoang_thuy Well-Known Member

    Tham gia ngày:
    10/6/09
    Bài viết:
    1,769
    Đã được cảm ơn:
    3,427
    Điểm thành tích:
    113
    Tiền:
    1,844 CR
    Ðề: BBC Wonders of the Monsoon (2014) All Bluray Version - Những Kì Quan Của Gió Mùa

    ƯU TIÊN CHO BẢN 1080 ĐI BÁC!
     
  8. tringuyen17

    tringuyen17 Member

    Tham gia ngày:
    4/11/09
    Bài viết:
    71
    Đã được cảm ơn:
    2
    Điểm thành tích:
    8
    Tiền:
    555 CR
    Ðề: BBC Wonders of the Monsoon (2014) All Bluray Version - Những Kì Quan Của Gió Mùa

    Cảm ơn bác đã chia sẻ nhưng Tên lửa thì em bó tay. :(
     
  9. huyxnguyen

    huyxnguyen Well-Known Member

    Tham gia ngày:
    26/1/11
    Bài viết:
    2,795
    Đã được cảm ơn:
    480
    Điểm thành tích:
    83
    Tiền:
    3,467 CR
    Ðề: BBC Wonders of the Monsoon (2014) All Bluray Version - Những Kì Quan Của Gió Mùa

    Vẫn chờ bản 1080p bác Trung ơi
     
    hh09 cảm ơn bài này.
  10. hoaitrung

    hoaitrung Well-Known Member

    Tham gia ngày:
    13/12/09
    Bài viết:
    2,552
    Đã được cảm ơn:
    8,112
    Điểm thành tích:
    113
    Giới tính:
    Nữ
    Nghề nghiệp:
    HD Documentaries
    Nơi ở:
    Việt nam
    Web:
    Tiền:
    3,649 CR
    Ðề: BBC Wonders of the Monsoon (2014) All Bluray Version - Những Kì Quan Của Gió Mùa

    Encode giữa chừng bị lỗi mất rồi bạn ơi. Giờ làm lại từ đầu chua quá, mà việc thì đầy đầu. Chắc để chờ bản rip của các nhóm rồi mình sẽ up lên nhanh nhất có thể!
     
    bopdung92 cảm ơn bài này.
  11. yahaa

    yahaa Active Member

    Tham gia ngày:
    7/7/10
    Bài viết:
    211
    Đã được cảm ơn:
    35
    Điểm thành tích:
    28
    Tiền:
    1,087 CR
    Ðề: BBC Wonders of the Monsoon (2014) All Bluray Version - Những Kì Quan Của Gió Mùa

    Trời ơi, down tenlua khó quá, mặc dù mình đã bỏ ra 1,3$ mua 7 ngày vip vậy mà toàn "The connection has timed out". Bó tay host này quá.
    Nếu chẳng may down được trong 7 ngày tới, mình sẽ up lại lên Fshare phục vụ các bác. (xin lỗi bác chủ nha)
     
  12. hoang_thuy

    hoang_thuy Well-Known Member

    Tham gia ngày:
    10/6/09
    Bài viết:
    1,769
    Đã được cảm ơn:
    3,427
    Điểm thành tích:
    113
    Tiền:
    1,844 CR
    Ðề: BBC Wonders of the Monsoon (2014) All Bluray Version - Những Kì Quan Của Gió Mùa

    Tenlua mới vừa qua một cuộc sửa chữa. Bạn down lại xem.
     
  13. yahaa

    yahaa Active Member

    Tham gia ngày:
    7/7/10
    Bài viết:
    211
    Đã được cảm ơn:
    35
    Điểm thành tích:
    28
    Tiền:
    1,087 CR
    Ðề: BBC Wonders of the Monsoon (2014) All Bluray Version - Những Kì Quan Của Gió Mùa

    Vẫn không được bạn ạ, mình đã thử tại công ty và ở nhà, dùng các loại trình duyệt vẫn không down được, lần nào cũng "The server at s13.tenlua.vn is taking too long to respond." ~X(
     
  14. flyboy34

    flyboy34 New Member

    Tham gia ngày:
    2/1/10
    Bài viết:
    32
    Đã được cảm ơn:
    1
    Điểm thành tích:
    0
    Tiền:
    46 CR
    Ðề: BBC Wonders of the Monsoon (2014) All Bluray Version - Những Kì Quan Của Gió Mùa

    cái host tên lửa này nói thật là éo ra cái gì cả ! Mình up vip hết 60k tải với IDM thì được khoảng 300-400kb , được chừng 20p thì timeout ! Bó Tay !
     
  15. hoang_thuy

    hoang_thuy Well-Known Member

    Tham gia ngày:
    10/6/09
    Bài viết:
    1,769
    Đã được cảm ơn:
    3,427
    Điểm thành tích:
    113
    Tiền:
    1,844 CR
    Ðề: BBC Wonders of the Monsoon (2014) All Bluray Version - Những Kì Quan Của Gió Mùa

    Mình cũng chỉ trích tên lửa, không biết có cao nhân nào bên đó chơi mình không mà mình không truy cập được kho hdblogspot của bác Hoài Trung nữa, cứ mỗi lần vào là nó dắt qua một trang web khác của vdc :>
     
  16. flyboy34

    flyboy34 New Member

    Tham gia ngày:
    2/1/10
    Bài viết:
    32
    Đã được cảm ơn:
    1
    Điểm thành tích:
    0
    Tiền:
    46 CR
    Ðề: BBC Wonders of the Monsoon (2014) All Bluray Version - Những Kì Quan Của Gió Mùa

    giờ e vẫn vào được, để thử xem có không nhé =]]
     
  17. flyboy34

    flyboy34 New Member

    Tham gia ngày:
    2/1/10
    Bài viết:
    32
    Đã được cảm ơn:
    1
    Điểm thành tích:
    0
    Tiền:
    46 CR
    Ðề: BBC Wonders of the Monsoon (2014) All Bluray Version - Những Kì Quan Của Gió Mùa

    nói chung em thấy cái host tên lửa này chỉ có mình bác Trung PR cho nó, trong khi chất lượng thì chả ra cái vẹo gì :v ko biết có uẩn khúc gì ở đây ko :3 ý kiến cá nhân của mình thôi nhé :D
     
  18. huyxnguyen

    huyxnguyen Well-Known Member

    Tham gia ngày:
    26/1/11
    Bài viết:
    2,795
    Đã được cảm ơn:
    480
    Điểm thành tích:
    83
    Tiền:
    3,467 CR
    Ðề: BBC Wonders of the Monsoon (2014) All Bluray Version - Những Kì Quan Của Gió Mùa

    Ấy, các bạn chớ nói tenlua quá thế chứ. Nhiều người dùng thấy rất ok mà. Cái được nhất là nó không xóa file bừa bãi như fshare và thời gian cho lưu trữ trên server lâu hơn hẳn fshare.

    Mình vào các link tenlua của bác Trung hoàn toàn bình thường, cả ở công ty lẫn ở nhà. Vậy các bạn thử xem lại máy/đường truyền của mình xem sao.

    Link tenlua tốc độ khá ổn (tầm 4-6 Mb/s) tuy không so với fshare được (9-11 Mb/s). Đây là tốc độ thực tế mình kéo film mấy ngày qua.

    Mình cũng chỉ có acc fshare, chứ tenlua không có acc, toàn get nhờ link qua các CBox thôi. Thế nên có sao nói vậy chứ không PR gì đâu nhá.
     
  19. hoang_thuy

    hoang_thuy Well-Known Member

    Tham gia ngày:
    10/6/09
    Bài viết:
    1,769
    Đã được cảm ơn:
    3,427
    Điểm thành tích:
    113
    Tiền:
    1,844 CR
    Ðề: BBC Wonders of the Monsoon (2014) All Bluray Version - Những Kì Quan Của Gió Mùa

    Mình có chút "kinh nghiệm" khi down ở tenlua là nếu down bằng IDM đến khoảng 95 - 98% rồi báo dữ liệu bị corrupt và đòi down lại từ đầu, tốt nhất là gỡ IDM và down bằng DownThemAll.

    DownThemAll của Firefox có cách làm việc như Fshare không tốn nhiều bộ nhớ như IDM.
     
  20. flyboy34

    flyboy34 New Member

    Tham gia ngày:
    2/1/10
    Bài viết:
    32
    Đã được cảm ơn:
    1
    Điểm thành tích:
    0
    Tiền:
    46 CR
    Ðề: BBC Wonders of the Monsoon (2014) All Bluray Version - Những Kì Quan Của Gió Mùa

    để test thử xem thế nào !

    ---------- Post added 18-01-2015 at 17:42 ----------

    bác thử mua cái acc vip về không dùng được đi rồi xem cảm giác thế nào nhé :) em xài hẳn vps của google để down đấy, fshare bình thường lên được 40-50mb/s
     
    Chỉnh sửa cuối: 18/1/15

Chia sẻ trang này