[MULTI] Bên Trong Gã Khổng Lồ Của Tự Nhiên - Giải Phẫu Cá Sấu - HDTV 1080p50 AAC 2.0-Wanara [Thuyết Minh]

Thảo luận trong 'Phim tài liệu - Documentaries' bắt đầu bởi wanara, 13/10/19 lúc 01:23.

  1. wanara

    wanara Well-Known Member

    Tham gia ngày:
    2/9/10
    Bài viết:
    1,000
    Đã được cảm ơn:
    20,960
    Điểm thành tích:
    113
    Giới tính:
    Nam
    Nơi ở:
    Việt Nam
    Web:
    Tiền:
    1,876 CR
    Bên Trong Gã Khổng Lồ Của Tự Nhiên
    Giải Phẫu Cá Sấu
    HDTV 1080p50 AAC 2.0-Wanara


    [​IMG]
    [​IMG]
    [​IMG]

    [​IMG]

    [​IMG]
    [​IMG]
    [​IMG]
    [​IMG]
    [​IMG]

    Mã:
    General
    Complete name               : G:\My Drive\Video\DTV Records\Ben Trong Nhung Ga Khong Lo Cua Tu Nhien - Giai Phau Ca Sau (SCTV12) HDTV 1080i & 1080p50\Ben Trong Nhung Ga Khong Lo Cua Tu Nhien - Giai Phau Ca Sau HDTV 1080p50 AAC 2.0-Wanara.mp4
    Format                      : MPEG-4
    Format profile              : Base Media
    Codec ID                    : isom (isom/iso2/avc1/mp41)
    
    
    File size                   : 2.67 GiB
    Duration                    : 46 min 38 s
    Overall bit rate mode       : Constant
    Overall bit rate            : 8 200 kb/s
    Encoded date                : UTC 2019-10-11 16:38:40
    Tagged date                 : UTC 2019-10-11 16:38:40
    Writing application         : Lavf58.30.100
    Video
    ID                          : 1
    Format                      : AVC
    Format/Info                 : Advanced Video Codec
    Format profile              : High@L4.2
    Format settings             : CABAC / 4 Ref Frames
    Format settings, CABAC      : Yes
    Format settings, Reference  : 4 frames
    Codec ID                    : avc1
    Codec ID/Info               : Advanced Video Coding
    Duration                    : 46 min 38 s
    Bit rate mode               : Constant
    Bit rate                    : 8 000 kb/s
    Width                       : 1 920 pixels
    Height                      : 1 080 pixels
    Display aspect ratio        : 16:9
    Frame rate mode             : Constant
    Frame rate                  : 50.000 FPS
    Color space                 : YUV
    Chroma subsampling          : 4:2:0
    Bit depth                   : 8 bits
    Scan type                   : Progressive
    Bits/(Pixel*Frame)          : 0.077
    Stream size                 : 2.61 GiB (98%)
    Encoded date                : UTC 2019-10-11 16:38:40
    Tagged date                 : UTC 2019-10-11 16:38:40
    Color range                 : Limited
    Color primaries             : BT.601 PAL
    Transfer characteristics    : BT.470 System B/G
    Matrix coefficients         : BT.470 System B/G
    Codec configuration box     : avcC
    Audio
    ID                          : 2
    Format                      : AAC LC
    Format/Info                 : Advanced Audio Codec Low Complexity
    Codec ID                    : mp4a-40-2
    Duration                    : 46 min 38 s
    Duration_LastFrame          : -3 ms
    Bit rate mode               : Constant
    Bit rate                    : 192 kb/s
    Channel(s)                  : 2 channels
    Channel layout              : L R
    Sampling rate               : 48.0 kHz
    Frame rate                  : 46.875 FPS (1024 SPF)
    Compression mode            : Lossy
    Stream size                 : 64.3 MiB (2%)
    Default                     : Yes
    Alternate group             : 1
    Encoded date                : UTC 2019-10-11 16:38:40
    Tagged date                 : UTC 2019-10-11 16:38:40
    
    [​IMG]
    Xem thêm:
    Tiết Lộ Về Loài Cá Sấu - HDTV 1080p50 AAC 2.0 [Thuyết Minh]
    Những Tấm Hình Tuyệt Vời Nhất Của National Geographic - Gấu Thần Linh - HDTV 1080p50 AAC 2.0 [Thuyết Minh]
    Điềm Đến Kỳ Thú - Vườn Quốc Gia Thingvellir-Iceland HDTV 1080p50 AAC 2.0 [Thuyết Minh]
    Khám Phá Việt Nam - Bộ Sưu Tập Ấm Trà - HDTV 1080p50 AAC 2.0
     
    Chỉnh sửa cuối: 15/10/19 lúc 22:38
  2. tlamhp

    tlamhp Well-Known Member

    Tham gia ngày:
    23/7/12
    Bài viết:
    570
    Đã được cảm ơn:
    298
    Điểm thành tích:
    63
    Giới tính:
    Nam
    Nghề nghiệp:
    Housekeeper
    Nơi ở:
    Oakland CA USA
    Tiền:
    1,174 CR
    Hôm trước có Tiết Lộ Về Loài Cá Sấu hôm nay lại thêm Giải Phẫu Cá Sấu mấy cái món này đều hay cả. Cảm ơn bạn đã chia sẻ.
     
    Hòa Thượng cảm ơn bài này.

Chia sẻ trang này