Bitrate này là bitrate gì đấy ạ?

Thảo luận trong 'HD cho người mới bắt đầu' bắt đầu bởi HD Hoi-Dap, 3/9/15.

  1. HD Hoi-Dap

    HD Hoi-Dap New Member

    Tham gia ngày:
    21/7/10
    Bài viết:
    233
    Đã được cảm ơn:
    2
    Khi down phim em thường thấy trong phần information có nói về bitrate. Cụ thể là cái bitrate em trích ở dưới đây

    Runtime 2h 1mn
    Bitrate 8784 Kbps
    Scan type Progressive
    Resolution 1920x1080 (16:9)
    Framerate Constant

    Audio English DTS 5.1 @ 1509 Kbps


    Vậy em xin nỏi Bitrate 8784 Kbps là con số cố định hay là số bitrate cao nhất, hay là số bitrate thấp nhất của bộ phim? Người ta tính làm sao , hay nói cách khác họ lấy ở đâu ra con số này ạ?
    Cảm ơn các bác giải đáp hộ em.
     
  2. eHOLIC2

    eHOLIC2 Well-Known Member

    Tham gia ngày:
    3/2/11
    Bài viết:
    239
    Đã được cảm ơn:
    254
    Nghề nghiệp:
    Self-employed
    Nơi ở:
    Lat 33.7 | Long -117.9
    Ðề: Bitrate này là bitrate gì đấy ạ?

    Tùy theo encoder họ chỉnh (setup) như thế nào nữa. Chẳng hạn, nếu encoder chỉnh bitrate là Constant Quality thì đây là con số cố định (Fixed bitrate). Ngược lại, nếu encoder để software tự điều chỉnh bitrate thì họ sẽ chọn Average Bitrate, lúc này con số này sẽ thường là số cao nhất trong suốt bộ phim.
    Làm sao họ biết con số này? Cái này dễ thôi, dùng phần mềm gọi là Mediainfo.
    Còn làm sao để encoder biết được con số này để điều chỉnh khi encode thì họ dùng phần mềm khác: Bitrate Calculator.
     
  3. haipvg

    haipvg Well-Known Member

    Tham gia ngày:
    1/11/08
    Bài viết:
    2,118
    Đã được cảm ơn:
    863
    Ðề: Bitrate này là bitrate gì đấy ạ?

    Nếu đề như thế thì thường là tính trung bình
     
  4. caothudeche

    caothudeche Moderator

    Tham gia ngày:
    24/1/10
    Bài viết:
    2,773
    Đã được cảm ơn:
    1,138
    Ðề: Bitrate này là bitrate gì đấy ạ?

    Bạn đưa nó không đầy đủ lắm, nên mình không chắc chắn. Nhưng dự đoán Cái này là bitrate trung bình của file đó nhé, bao gồm tất tần tật video + auido + và các thông tin khác.
    Ví dụ như Media info ở dưới thì bạn sẽ thấy rõ Overall bit rate: 14.3 Mbps Bitrate của phần Video Bit rate: 13.2 Mbps, , Và Bitrate của Audio #1, Audio #2....
    Bitrate này nó do máy tính ra thôi, con người tính làm sao được. Với cơ chế nén CBR, hay một vài khung hình thì may ra còn tính được.

    Khi nén video thường có 3 lựa chọn: CBR (bitrate không đối), VBR (bitrate thay đổi), MBR (bitrate thay đổi nhưng không quá một giá trị tối đa nào đó).

    Mã:
    
    General
    Unique ID                                : 234458012488533465013384712996486608800 (0xB062F87F7D068629B2A13C50EDC377A0)
    Complete name                            : D:\Download\BBC.Planet.Dinosaur.S01.E01.2011.ViE.1080p.BluRay.DD2.0.x264-HDW&VAV.mkv
    Format                                   : Matroska
    Format version                           : Version 2
    File size                                : 2.82 GiB
    Duration                                 : 28mn 16s
    Overall bit rate                         : 14.3 Mbps
    Movie name                               : BBC.Planet.Dinosaur.S01.E01.2011.ViE.1080p.BluRay.2Audio.DD2.0.x264-HDChina&VAV
    Encoded date                             : UTC 2012-09-22 15:02:17
    Writing application                      : mkvmerge v5.7.0 ('The Whirlwind') built on Jul  8 2012 20:08:51
    Writing library                          : libebml v1.2.3 + libmatroska v1.3.0
    
    Video
    ID                                       : 1
    Format                                   : AVC
    Format/Info                              : Advanced Video Codec
    Format profile                           : High@L4.1
    Format settings, CABAC                   : Yes
    Format settings, ReFrames                : 4 frames
    Muxing mode                              : Header stripping
    Codec ID                                 : V_MPEG4/ISO/AVC
    Duration                                 : 28mn 16s
    Bit rate                                 : 13.2 Mbps
    Width                                    : 1 920 pixels
    Height                                   : 1 080 pixels
    Display aspect ratio                     : 16:9
    Frame rate mode                          : Constant
    Frame rate                               : 25.000 fps
    Color space                              : YUV
    Chroma subsampling                       : 4:2:0
    Bit depth                                : 8 bits
    Scan type                                : Progressive
    Bits/(Pixel*Frame)                       : 0.255
    Stream size                              : 2.61 GiB (93%)
    Title                                    : BBC Planet Dinosaur (2011) | VAV | tranvinhhn
    Writing library                          : x264 core 125 r2200 999b753
    Encoding settings                        : cabac=1 / ref=4 / deblock=1:-2:-2 / analyse=0x3:0x113 / me=umh / subme=11 / psy=1 / psy_rd=1.00:0.00 / mixed_ref=1 / me_range=48 / chroma_me=1 / trellis=2 / 8x8dct=1 / cqm=0 / deadzone=21,11 / fast_pskip=0 / chroma_qp_offset=-2 / threads=18 / lookahead_threads=3 / sliced_threads=0 / nr=0 / decimate=0 / interlaced=0 / bluray_compat=0 / constrained_intra=0 / bframes=7 / b_pyramid=2 / b_adapt=2 / b_bias=0 / direct=3 / weightb=1 / open_gop=0 / weightp=2 / keyint=240 / keyint_min=24 / scenecut=40 / intra_refresh=0 / rc_lookahead=120 / rc=crf / mbtree=1 / crf=17.0 / qcomp=0.70 / qpmin=0 / qpmax=69 / qpstep=4 / ip_ratio=1.40 / aq=1:1.20
    Language                                 : English
    Default                                  : Yes
    Forced                                   : No
    
    Audio #1
    ID                                       : 2
    Format                                   : AC-3
    Format/Info                              : Audio Coding 3
    Mode extension                           : CM (complete main)
    Format settings, Endianness              : Big
    Muxing mode                              : Header stripping
    Codec ID                                 : A_AC3
    Duration                                 : 28mn 16s
    Bit rate mode                            : Constant
    Bit rate                                 : 384 Kbps
    Channel(s)                               : 2 channels
    Channel positions                        : Front: L R
    Sampling rate                            : 48.0 KHz
    Bit depth                                : 16 bits
    Compression mode                         : Lossy
    Stream size                              : 77.6 MiB (3%)
    Title                                    : Vietnamese DD 2.0 @ 384 Kbps
    Language                                 : Vietnamese
    Default                                  : Yes
    Forced                                   : No
    
    Audio #2
    ID                                       : 5
    Format                                   : AC-3
    Format/Info                              : Audio Coding 3
    Mode extension                           : CM (complete main)
    Format settings, Endianness              : Big
    Muxing mode                              : Header stripping
    Codec ID                                 : A_AC3
    Duration                                 : 28mn 16s
    Bit rate mode                            : Constant
    Bit rate                                 : 384 Kbps
    Channel(s)                               : 2 channels
    Channel positions                        : Front: L R
    Sampling rate                            : 48.0 KHz
    Bit depth                                : 16 bits
    Compression mode                         : Lossy
    Stream size                              : 77.6 MiB (3%)
    Title                                    : English DD 2.0 @ 384 Kbps
    Language                                 : English
    Default                                  : No
    Forced                                   : No
    
    Text #1
    ID                                       : 3
    Format                                   : UTF-8
    Codec ID                                 : S_TEXT/UTF8
    Codec ID/Info                            : UTF-8 Plain Text
    Title                                    : VAV tranvinhhn info
    Language                                 : French
    Default                                  : Yes
    Forced                                   : No
    
    Text #2
    ID                                       : 4
    Format                                   : UTF-8
    Codec ID                                 : S_TEXT/UTF8
    Codec ID/Info                            : UTF-8 Plain Text
    Title                                    : English
    Language                                 : English
    Default                                  : No
    Forced                                   : No
    
    Text #3
    ID                                       : 6
    Format                                   : UTF-8
    Codec ID                                 : S_TEXT/UTF8
    Codec ID/Info                            : UTF-8 Plain Text
    Title                                    : Vietnamese
    Language                                 : Vietnamese
    Default                                  : No
    Forced                                   : No
     
  5. Lợi 147

    Lợi 147 New Member

    Tham gia ngày:
    14/10/15
    Bài viết:
    31
    Đã được cảm ơn:
    0
    Ðề: Bitrate này là bitrate gì đấy ạ?

    nó ảnh hưởng đến hầu hết những gì bạn làm trên máy tính hay thiết bị di động. Ngoài việc đưa bitrate vào làm một trong những tiêu chí so sánh, bạn cũng có thể kết hợp các ý tưởng nêu trên nhằm hiểu rõ nguyên lý truyền dữ liệu qua mạng Internet. Cụ thể, nếu một video trên Youtube có bitrate cao hơn mức mà đường truyền Internet của bạn có thể chấp nhận, bạn sẽ không thể xem một nó một cách trơn tru từ đầu đến cuối.
     
  6. lyatum

    lyatum New Member

    Tham gia ngày:
    21/10/11
    Bài viết:
    28
    Đã được cảm ơn:
    0
    Ðề: Bitrate này là bitrate gì đấy ạ?

    Cho mình hỏi ngu 1 chút. vậy bitrate càng cao thì hình càng đẹp phải không
     
  7. caothudeche

    caothudeche Moderator

    Tham gia ngày:
    24/1/10
    Bài viết:
    2,773
    Đã được cảm ơn:
    1,138
    Ðề: Bitrate này là bitrate gì đấy ạ?

    Chuẩn luôn men.
    Nhưng mà nó cũng yêu cầu thiết bị hiển thị đủ sức thể hiện và người thưởng thức đủ sức phân biệt sự khác nhau giữa các bitrate khác nhau. Nếu không thì cao cũng bằng thừa.
     
  8. xixido

    xixido New Member

    Tham gia ngày:
    15/3/11
    Bài viết:
    16
    Đã được cảm ơn:
    1
    Ðề: Bitrate này là bitrate gì đấy ạ?

    Bạn ơi thế cho mình hỏi là bitrate như nào thì hợp với tốc độ mạng của việt nam. Mình hay xem online HD nhưng lại hay bị giật
     
  9. ryualviss

    ryualviss Member

    Tham gia ngày:
    30/5/11
    Bài viết:
    138
    Đã được cảm ơn:
    7
    Ðề: Bitrate này là bitrate gì đấy ạ?

    cái này đúng với những encoder chân chính ko chơi độn bitrate để câu view. :p
    nói chung tùy cặp mắt từng người mà chọn ra chất lượng đẹp nhất ưng ý mình.
     
  10. tuanreb

    tuanreb Active Member

    Tham gia ngày:
    6/2/12
    Bài viết:
    695
    Đã được cảm ơn:
    131
    Ðề: Bitrate này là bitrate gì đấy ạ?

    Cái quan trọng nhất là source (nguồn video) bạn à. Video được encode từ source Bluray bitrate 2k đẹp hơn vạn lần so với video từ DVD ~bitrate 6.5k.
     

Chia sẻ trang này