[Ca nhạc | 1 Link] Thúy Nga Paris By Night 108 - Time - Thời Gian 720p BluRay AC3 5.1x264-TMQ - 2 Di

Thảo luận trong 'Fshare.vn' bắt đầu bởi netbon, 10/6/13.

  1. netbon

    netbon Member

    Tham gia ngày:
    10/2/12
    Bài viết:
    217
    Đã được thích:
    0
    Điểm thành tích:
    16
    Tiền:
    515 CR

    Thúy Nga Paris By Night 108 - 720p BluRay AC3 5.1x264-TMQ - 2 Disc
    Time - Thời Gian

    [​IMG]
    [​IMG]

    Disc 01

    Mã:
    Complete name                            : Paris By Night 108 Time-Thoi Gian-Bluray 720p AC3 5 1x264 Disc01-TMQ.mkv
    Format                                   : Matroska
    Format version                           : Version 4 / Version 2
    File size                                : 5.77 GiB
    Duration                                 : 2h 15mn
    Movie name                               : Paris By Night 108 Time-Thoi Gian-Bluray 720p AC3 5 1x264 Disc01-TMQ
    
    Video
    ID                                       : 1
    Format                                   : AVC
    Format/Info                              : Advanced Video Codec
    Format profile                           : High@L4.1
    Format settings, CABAC                   : Yes
    Format settings, ReFrames                : 3 frames
    Codec ID                                 : V_MPEG4/ISO/AVC
    Duration                                 : 2h 15mn
    Bit rate mode                            : Variable
    Bit rate                                 : 5 212 Kbps
    Maximum bit rate                         : 62.5 Mbps
    Width                                    : 1 280 pixels
    Height                                   : 720 pixels
    Display aspect ratio                     : 16:9
    Frame rate mode                          : Constant
    Frame rate                               : 29.970 fps
    Color space                              : YUV
    Scan type                                : Progressive
    Stream size                              : 4.81 GiB (83%)
    Title                                    : Paris By Night 108 Time-Thoi Gian-Bluray 720p AC3 5 1x264 Disc01-TMQ
    Language                                 : Vietnamese
    Default                                  : Yes
    Forced                                   : No
    
    Audio #1
    ID                                       : 2
    Format                                   : AC-3
    Format/Info                              : Audio Coding 3
    Bit rate                                 : 448 Kbps
    Channel(s)                               : 2 channels
    Channel positions                        : Front: L R
    Sampling rate                            : 48.0 KHz
    Bit depth                                : 16 bits
    Compression mode                         : Lossy
    
    Audio #2
    ID                                       : 3
    Format                                   : AC-3
    Format/Info                              : Audio Coding 3
    Bit rate                                 : 448 Kbps
    Channel(s)                               : 6 channels
    Channel positions                        : Front: L C R, Side: L R, LFE
    Sampling rate                            : 48.0 KHz
    Bit depth                                : 16 bits
    Compression mode                         : Lossy
    
    Menu
    00:00:00.000                             : en:"Phần Mở Đầu"
    00:00:56.243                             : en:"LK: Bon Mua - Mua He Dep Nhat(Minh Tuyet) - Chi La Mua Thu Roi(Ngoc Anh) - Goc Pho Reu Xanh(Ky Phuong Uyen) - Khuc Giao Mua(Toc Tien)"
    00:09:48.392                             : en:"Loi Mo Dau: Nguyễn Ngọc Ngạn - Ky Duyen"
    00:14:53.646                             : en:"LK: Chieu Tren Pha Tam Giang(The Son - Tren Dinh Mua Dong(Lam Anh)"
    00:23:55.896                             : en:"Chi Chung Do thoi - Don Ho"
    00:32:51.855                             : en:"LK: Phut Giay Minh Chia Tay(Diem Suong) - Gio Thi Anh Da Biet(Luong Tung Quang)"
    00:39:46.089                             : en:"Do Vui Khang Gia"
    00:48:06.522                             : en:"Bong Co May - Giang Tu"
    00:53:46.130                             : en:"Em Di Qua De Lai - Luu Bich"
    00:59:06.995                             : en:"Dem Bo Vo - Khanh Lam"
    01:06:57.223                             : en:"Ao Giac - Thanh Ha"
    01:15:30.718                             : en:"Phut Cuoi - Trinh Lam"
    01:20:50.489                             : en:"Giong Ca Di Vang - Nhu Quynh"
    01:28:38.965                             : en:"Hinh Anh Nguoi Em Khong Doi - Huong Thuy"
    01:32:26.356                             : en:"Hoài Thu - Ha Vy"
    01:40:28.077                             : en:"Tinh Cam - Dinh Bao"
    01:47:06.025                             : en:"Chi Con Lai Tinh Yeu - Bang Kieu"
    01:52:53.547                             : en:"Nhat Ky Doi Toi - Mai Thien Van"
    01:58:01.987                             : en:"Do Vui Khan Gia"
    02:04:18.451                             : en:"Lang Nghe Thoi Gian - Mai Tien Dung"
    02:08:27.231                             : en:"Do Vui Khan Gia"
    
    Disc 02

    Mã:
    Complete name                            : Paris By Night 108 Time-Thoi Gian-Bluray 720p AC3 5 1x264 Disc02-TMQ.mkv
    Format                                   : Matroska
    Format version                           : Version 4 / Version 2
    File size                                : 5.61 GiB
    Duration                                 : 2h 11mn
    Movie name                               : Paris By Night 108 Time-Thoi Gian-Bluray 720p AC3 5 1x264 Disc02-TMQ
    
    Video
    ID                                       : 1
    Format                                   : AVC
    Format/Info                              : Advanced Video Codec
    Format profile                           : High@L4.1
    Format settings, CABAC                   : Yes
    Format settings, ReFrames                : 2 frames
    Codec ID                                 : V_MPEG4/ISO/AVC
    Duration                                 : 2h 11mn
    Bit rate mode                            : Variable
    Bit rate                                 : 5 212 Kbps
    Maximum bit rate                         : 62.5 Mbps
    Width                                    : 1 280 pixels
    Height                                   : 720 pixels
    Display aspect ratio                     : 16:9
    Frame rate mode                          : Constant
    Frame rate                               : 29.970 fps
    Color space                              : YUV
    Scan type                                : Progressive
    Stream size                              : 4.67 GiB (83%)
    Default                                  : Yes
    Forced                                   : No
    
    Audio #1
    ID                                       : 2
    Format                                   : AC-3
    Bit rate                                 : 448 Kbps
    Channel(s)                               : 2 channels
    Channel positions                        : Front: L R
    Sampling rate                            : 48.0 KHz
    Bit depth                                : 16 bits
    Compression mode                         : Lossy
    
    Audio #2
    ID                                       : 3
    Format                                   : AC-3
    Bit rate                                 : 448 Kbps
    Channel(s)                               : 6 channels
    Channel positions                        : Front: L C R, Side: L R, LFE
    Sampling rate                            : 48.0 KHz
    Bit depth                                : 16 bits
    Compression mode                         : Lossy
    
    Menu
    00:00:00.000                             : en:"Do Vui Khan Gia"
    00:00:01.831                             : en:"Hai: Hoa Hau Phu Nhan - Chi Tai - Viet Huong - Thuy Nga - Hoai Tam - Nguyen Khoa"
    00:34:10.074                             : en:"Thay The - Minh Tuyet"
    00:40:13.223                             : en:"Bay Ngay Doi Mong - Quynh Vi - Tran Thai Hoa"
    00:45:24.477                             : en:"Phong Van Ca Si Thien Ton"
    00:48:20.727                             : en:"Huong Xua - Thien Ton"
    00:55:50.686                             : en:"LK: 60 Nam Cuoc Doi - 20 - 40 - Nguyen Hung - Nhu Loan"
    01:01:12.920                             : en:"Tan Co: Hoa Muoi Gio - Duy Truong - Mai Thien Van"
    01:13:27.353                             : en:"Mot Ngay Khong Con Xa - Anh Tu - Ky Phuong Uyen"
    01:21:23.961                             : en:"Khi Xua Ta Be / Bang Bang - Thu Phuong"
    01:28:30.826                             : en:"Duong Xua Loi Cu - Quang Le"
    01:38:08.054                             : en:"Buoc Cung Thoi Gian - Anh Minh"
    01:42:36.549                             : en:"Do Vui Khan Gia"
    01:52:15.320                             : en:"Nha Trang Ngay Ve - Ngoc Anh"
    01:58:56.796                             : en:"Loi Cam Ta - Nguyen Ngoc Ngan - Ky Duyen"
    02:03:00.187                             : en:"Em Dem Nhat Dem Nay - Toc Tien"
    02:07:54.908                             : en:"Finale"
    

    Screenshot

    [​IMG] [​IMG]
    [​IMG] [​IMG]
    [​IMG] [​IMG]
    [​IMG] [​IMG]
    [​IMG] [​IMG]
    [​IMG] [​IMG]

    Trailer Phim:
    [video=youtube;MiNQsfywFVk]http://www.youtube.com/watch?v=MiNQsfywFVk[/video]

    Mình đã chia làm 2 phần cho dễ xem, có cả chapter nhé.
    DOWNLOAD DISC 01:
    (ONE LINK 5.76 GB)
    [Hide]Paris By Night 108 Time-Thoi Gian-Bluray 720p AC3 5 1x264 Disc01-TMQ[/Hide]

    DOWNLOAD DISC 02:
    (ONE LINK 5.60 GB)
    [Hide]Paris By Night 108 Time-Thoi Gian-Bluray 720p AC3 5 1x264 Disc02-TMQ[/Hide]


    Bản 1080p BluRay AC3 5.1x264-TMQ - 2 Disc
    http://www.hdvietnam.com/diendan/33-fshare-vn/604449-ca-nhac-1-link-thuy-nga.html

    Bản 1080p BluRay AC3 5.1x264-TMQ (Full Chapter)
    http://www.hdvietnam.com/diendan/33-fshare-vn/604345-ca-nhac-1-link-thuy-nga.html

    Bản 720p BluRay AC3 5.1x264-TMQ (Full Chapter)
    http://www.hdvietnam.com/diendan/33-fshare-vn/609249-ca-nhac-1-link-thuy-nga.html
     
    Chỉnh sửa cuối: 10/6/13
  2. netbon

    netbon Member

    Tham gia ngày:
    10/2/12
    Bài viết:
    217
    Đã được thích:
    0
    Điểm thành tích:
    16
    Tiền:
    515 CR
    Ðề: [Ca nhạc | 1 Link] Thúy Nga Paris By Night 108 - Time - Thời Gian 720p BluRay AC3 5.1x264-TMQ - 2 Disc

    Bản 1080p BluRay AC3 5.1x264-TMQ - 2 Disc
    http://www.hdvietnam.com/diendan/33-fshare-vn/604449-ca-nhac-1-link-thuy-nga.html

    Bản 1080p BluRay AC3 5.1x264-TMQ (Full Chapter)
    http://www.hdvietnam.com/diendan/33-fshare-vn/604345-ca-nhac-1-link-thuy-nga.html

    Bản 720p BluRay AC3 5.1x264-TMQ (Full Chapter)
    http://www.hdvietnam.com/diendan/33-fshare-vn/609249-ca-nhac-1-link-thuy-nga.html
     
  3. hunganhqn

    hunganhqn Member

    Tham gia ngày:
    10/1/09
    Bài viết:
    113
    Đã được thích:
    1
    Điểm thành tích:
    18
    Tiền:
    145 CR
    Ðề: [Ca nhạc | 1 Link] Thúy Nga Paris By Night 108 - Time - Thời Gian 720p BluRay AC3 5.1x264-TMQ - 2 Disc

    Chủ rạp có thể reup lại bản 2 disc 720p này được không ạ?
    Vô cùng cảm ơn!
     
  4. minhnq2911

    minhnq2911 New Member

    Tham gia ngày:
    23/9/10
    Bài viết:
    2
    Đã được thích:
    0
    Điểm thành tích:
    0
    Tiền:
    4 CR
    Ðề: [Ca nhạc | 1 Link] Thúy Nga Paris By Night 108 - Time - Thời Gian 720p BluRay AC3 5.1x264-TMQ - 2 Disc

    Bác chủ ơi link chết hết rồi ợ.
     

Chia sẻ trang này