[Ca Nhạc] Air Supply Live in Hong Kong (2013) 720p BluRay DTS x264-WiKi]

Thảo luận trong 'Fshare.vn' bắt đầu bởi coduocgidau, 27/12/17.

  1. coduocgidau

    coduocgidau Uploader

    Tham gia ngày:
    14/11/12
    Bài viết:
    25,830
    Đã được cảm ơn:
    564,833
    [Ca Nhạc] Air Supply Live in Hong Kong (2013) [720p BluRay DTS x264-WiKi]

    [​IMG]

    [​IMG]

    Mã:
    [/COLOR][/SIZE][/CENTER][/COLOR][/SIZE][/CENTER]
    
    
    	

    [SIZE=5][COLOR=#b30000]

    [CENTER][SIZE=5][COLOR=#b30000] [CENTER]General Unique ID : 234750115949720147375686918722078946035 (0xB09B3A4F8057C895B62D90FCD470B2F3) Complete name : E:\DOWNLOAD\Air Supply Live in Hong Kong 2013 720p BluRay DTS x264-WiKi\Air.Supply.Live.in.Hong.Kong.2013.720p.BluRay.x264.DTS-WiKi\Air.Supply.Live.in.Hong.Kong.2013.720p.BluRay.x264.DTS-WiKi.mkv Format : Matroska Format version : Version 1 File size : 5.47 GiB Duration : 1 h 40 min Overall bit rate mode : Variable Overall bit rate : 7 767 kb/s Encoded date : UTC 2014-08-16 11:56:40 Writing application : mkvmerge v2.2.0 ('Turn It On Again') built on Mar 4 2008 12:58:26 Writing library : libebml v0.7.7 + libmatroska v0.8.1 Video ID : 1 Format : AVC Format/Info : Advanced Video Codec Format profile : High@L4.1 Format settings, CABAC : Yes Format settings, ReFrames : 9 frames Codec ID : V_MPEG4/ISO/AVC Duration : 1 h 40 min Bit rate mode : Variable Bit rate : 6 103 kb/s Nominal bit rate : 5 000 kb/s Maximum bit rate : 40.0 Mb/s Width : 1 280 pixels Height : 720 pixels Display aspect ratio : 16:9 Frame rate mode : Constant Frame rate : 29.970 (30000/1001) FPS Color space : YUV Chroma subsampling : 4:2:0 Bit depth : 8 bits Scan type : Progressive Bits/(Pixel*Frame) : 0.221 Stream size : 4.30 GiB (79%) Writing library : x264 core 133 r2334 a3ac64b Encoding settings : cabac=1 / ref=9 / deblock=1:-2:-2 / analyse=0x3:0x133 / me=umh / subme=11 / psy=1 / psy_rd=0.85:0.00 / mixed_ref=1 / me_range=32 / chroma_me=1 / trellis=2 / 8x8dct=1 / cqm=0 / deadzone=21,11 / fast_pskip=0 / chroma_qp_offset=-2 / threads=6 / lookahead_threads=1 / sliced_threads=0 / nr=0 / decimate=0 / interlaced=0 / bluray_compat=0 / constrained_intra=0 / bframes=8 / b_pyramid=2 / b_adapt=2 / b_bias=0 / direct=3 / weightb=1 / open_gop=0 / weightp=2 / keyint=250 / keyint_min=23 / scenecut=40 / intra_refresh=0 / rc=2pass / mbtree=0 / bitrate=5000 / ratetol=1.0 / qcomp=0.70 / qpmin=0 / qpmax=69 / qpstep=4 / cplxblur=20.0 / qblur=0.5 / ip_ratio=1.40 / pb_ratio=1.30 / aq=2:0.8 Language : English Default : Yes Forced : No Audio ID : 2 Format : DTS Format/Info : Digital Theater Systems Format profile : 96/24 / Core Mode : 16 Format settings, Endianness : Big Codec ID : A_DTS Duration : 1 h 40 min Bit rate mode : Constant Bit rate : 1 509 kb/s Channel(s) : 6 channels Channel positions : Front: L C R, Side: L R, LFE Sampling rate : 96.0 kHz / 48.0 kHz Frame rate : 93.750 FPS (512 spf) Bit depth : 24 bits Compression mode : Lossy Stream size : 1.06 GiB (19%) Language : English Default : Yes Forced : No Menu 00:00:00.000 : :Even the Nights Are Better 00:05:08.941 : :Just as I am 00:09:42.114 : :Every Woman in the World 00:14:17.289 : :Here I Am 00:20:17.716 : :Chances 00:24:40.946 : :Dance with Me 00:33:05.149 : :Desert, Sea, Sky 00:38:01.279 : :Power of Love 00:45:09.573 : :I Won‘t Stop Loving You 00:52:29.913 : :Two Less Lonely People 00:56:26.649 : :The One That You Love 01:04:24.961 : :Lost in Love 01:09:15.084 : :Sweet Dreams 01:14:28.464 : :Making Love Out Of Nothing At All 01:26:12.133 : :Goodbye 01:33:29.203 : :All Out Of Love


     
  2. phuocdoi100

    phuocdoi100 Well-Known Member

    Tham gia ngày:
    23/7/09
    Bài viết:
    1,550
    Đã được cảm ơn:
    798
    Giới tính:
    Nam
    Cám ơn chủ thớt nhiều lắm!
     
  3. cuongna1984

    cuongna1984 Member

    Tham gia ngày:
    2/10/14
    Bài viết:
    44
    Đã được cảm ơn:
    16
    Thanks bạn nhiều
     
    Người Thành Phố cảm ơn bài này.
  4. noiloanxmen

    noiloanxmen Member

    Tham gia ngày:
    14/2/11
    Bài viết:
    67
    Đã được cảm ơn:
    34
    Cám ơn chủ thớt
     
    Người Thành Phố cảm ơn bài này.
  5. vinny

    vinny Member

    Tham gia ngày:
    2/11/08
    Bài viết:
    150
    Đã được cảm ơn:
    11
    cam on bac chu da chia se
     
    Người Thành Phố cảm ơn bài này.

Chia sẻ trang này