[Ca Nhạc] ASIA 82: Phạm Đình Chương: Mộng Dưới Hoa 2018 1080p WEB-DL AC3 x264

Thảo luận trong 'WEB-DL, HDTV' bắt đầu bởi hungdaita, 27/6/18.

  1. hungdaita

    hungdaita ☆☆☆ TayTO ☆☆☆

    Tham gia ngày:
    18/3/12
    Bài viết:
    62,990
    Đã được cảm ơn:
    1,143,295
    Điểm thành tích:
    113
    Giới tính:
    Nam
    Nghề nghiệp:
    Encoder ~ Share more share
    Nơi ở:
    Hà Nội - Việt Nam
    Web:
    Tiền:
    28,123 CR
    ASIA 82: Phạm Đình Chương: Mộng Dưới Hoa 2018


    [​IMG]







    SONG LIST ASIA 82
    01. Sáng Rừng - Cardin, Cat Lynh, Ngọc Anh Vi, Ngô Khải Anh
    02. Ngựa Phi Đường Xa - Hoàng Anh Thư & Lê Quốc Tuấn

    03. Được Mùa - Dạ Hương, Hoàng Anh Thư, Khả Linh, Phương Trang, Huệ Thy, Bích Đào

    04. Mộng Dưới Hoa - Xuân Phú
    05. Mười Thương - Khả Linh, Leon Vũ
    06. Thuở Ban Đầu - Cát Lynh & Triệu Khắc Vinh
    07. Mắt Buồn - Anh Tuấn & Dạ Hương
    08. Xóm Đêm- Thanh Lan
    09. Đêm Cuối Cùng - Diễm Ngân
    10. Người Đi Qua Đời Tôi - Duy Thành
    11. Nửa Hồn Thương Đau - Hồ Hoàng Yến
    12. Đón Xuân - Ngọc Anh Vi
    13. Anh Đi Chiến Dịch - Thế Sơn
    14. Lá Thư Người Chiến Sĩ - Đặng Thế Luân
    15. Trường Ca Hội Trùng Dương - Lê Uyên, Huệ Thy & Bích Đào
    16. Cho Thành Phố Mất Tên - Anh Tuấn, Lê Quốc Tuấn, Triệu Khắc Vinh & Thế Sơn
    17. Đợi Chờ - Phương Trang
    18. Quê Hương Là Người Đó - Diễm Liên
    19. Đêm Nhớ Trăng Sài Gòn - Lệ Thu
    20. Tiếng Dân Chài - Hoàng Quân

    Format : Matroska
    Format version : Version 4 / Version 2
    File size : 5.39 GiB
    Duration : 2 h 42 min
    Overall bit rate : 4 743 kb/s
    Movie name : ASIA 82
    Encoded date : UTC 2018-06-25 15:50:11
    Writing application : mkvmerge v24.0.0 ('Beyond The Pale') 64-bit
    Writing library : libebml v1.3.6 + libmatroska v1.4.9
    Cover : Yes
    Attachments : Cover_land.jpg / Small_cover.jpg / Small_cover_land.jpg / Cover.jpg

    Video
    ID : 1
    Format : AVC
    Format/Info : Advanced Video Codec
    Format profile : High@L4
    Format settings : CABAC / 4 Ref Frames
    Format settings, CABAC : Yes
    Format settings, ReFrames : 4 frames
    Codec ID : V_MPEG4/ISO/AVC
    Duration : 2 h 42 min
    Bit rate : 4 500 kb/s
    Width : 1 920 pixels
    Height : 1 080 pixels
    Display aspect ratio : 16:9
    Frame rate mode : Constant
    Frame rate : 29.970 (30000/1001) FPS
    Color space : YUV
    Chroma subsampling : 4:2:0
    Bit depth : 8 bits
    Scan type : Progressive
    Bits/(Pixel*Frame) : 0.072
    Stream size : 5.09 GiB (95%)
    Title : ASIA 82 : Phạm Đình Chương : Mộng Dưới Hoa 2018
    Writing library : x264 core 148 r10 72d53ab
    Encoding settings : cabac=1 / ref=4 / deblock=1:0:0 / analyse=0x3:0x113 / me=hex / subme=8 / psy=1 / psy_rd=1.00:0.00 / mixed_ref=1 / me_range=16 / chroma_me=1 / trellis=2 / 8x8dct=1 / cqm=0 / deadzone=21,11 / fast_pskip=1 / chroma_qp_offset=-2 / threads=34 / lookahead_threads=5 / sliced_threads=0 / nr=0 / decimate=1 / interlaced=0 / bluray_compat=0 / stitchable=1 / constrained_intra=0 / bframes=3 / b_pyramid=2 / b_adapt=1 / b_bias=0 / direct=3 / weightb=1 / open_gop=0 / weightp=2 / keyint=infinite / keyint_min=29 / scenecut=40 / intra_refresh=0 / rc_lookahead=50 / rc=2pass / mbtree=1 / bitrate=4500 / ratetol=1.0 / qcomp=0.60 / qpmin=5 / qpmax=69 / qpstep=4 / cplxblur=20.0 / qblur=0.5 / vbv_maxrate=4950 / vbv_bufsize=13500 / nal_hrd=none / filler=0 / ip_ratio=1.40 / aq=1:1.00
    Language : Vietnamese
    Default : Yes
    Forced : No
    Color range : Limited
    Color primaries : BT.709
    Transfer characteristics : BT.709
    Matrix coefficients : BT.709

    Audio
    ID : 2
    Format : AC-3
    Format/Info : Audio Coding 3
    Codec ID : A_AC3
    Duration : 2 h 42 min
    Bit rate mode : Constant
    Bit rate : 256 kb/s
    Channel(s) : 2 channels
    Channel positions : Front: L R
    Sampling rate : 48.0 kHz
    Frame rate : 31.250 FPS (1536 SPF)
    Bit depth : 16 bits
    Compression mode : Lossy
    Delay relative to video : -67 ms
    Stream size : 298 MiB (5%)
    Language : Vietnamese
    Service kind : Complete Main
    Default : Yes
    Forced : No

    Menu
    00:00:00.000 : vi:01. Sáng Rừng - Cardin, Cat Lynh, Ngọc Anh Vi, Ngô Khải Anh
    00:04:48.885 : vi:02. MC: Nam Lộc & Leyna Nguyễn, Châu Đình An & Thùy Dương
    00:14:30.757 : vi:03. Ngựa Phi Đường Xa - Hoàng Anh Thư & Lê Quốc Tuấn
    00:18:24.072 : vi:04. MC: Thùy Dương
    00:20:15.302 : vi:05. Được Mùa - Dạ Hương, Hoàng Anh Thư, Khả Linh, Phương Trang, Huệ Thy, Bích Đào
    00:24:26.584 : vi:06. MC: Nam Lộc & Thùy Dương
    00:27:33.672 : vi:07. Mộng Dưới Hoa - Xuân Phú
    00:33:00.038 : vi:08. Mười Thương - Khả Linh, Leon Vũ
    00:37:44.712 : vi:09. Thuở Ban Đầu - Cát Lynh & Triệu Khắc Vinh
    00:41:33.505 : vi:10. MC: Nam Lộc & Leyna Nguyễn
    00:47:50.170 : vi:11. Mắt Buồn - Anh Tuấn & Dạ Hương
    00:52:49.968 : vi:12. MC: Nam Lộc & Châu Đình An
    00:55:43.130 : vi:13. Xóm Đêm- Thanh Lan
    01:00:59.154 : vi:14. MC: Nam Lộc & Thùy Dương
    01:03:06.192 : vi:15. Đêm Cuối Cùng - Diễm Ngân
    01:07:39.716 : vi:16. Người Đi Qua Đời Tôi - Duy Thành
    01:12:13.867 : vi:17. MC: Nam Lộc & Leyna Nguyễn
    01:14:15.082 : vi:18. Nửa Hồn Thương Đau - Hồ Hoàng Yến
    01:19:27.498 : vi:19. MC: Nam Lộc & Các Nhà Bảo Trợ
    01:32:32.226 : vi:20. MC: Châu Đình An & Thùy Dương
    01:34:19.536 : vi:21. Đón Xuân - Ngọc Anh Vi
    01:38:53.856 : vi:22. Anh Đi Chiến Dịch - Thế Sơn
    01:44:11.669 : vi:23. Lá Thư Người Chiến Sĩ - Đặng Thế Luân
    01:49:30.282 : vi:24. MC: Nam Lộc & Nhạc Sĩ: Diệu Hương
    01:54:45.320 : vi:25. Trường Ca Hội Trùng Dương - Lê Uyên, Huệ Thy & Bích Đào
    02:03:07.973 : vi:26. MC: Nam Lộc & Châu Đình An
    02:06:24.295 : vi:27. Cho Thành Phố Mất Tên - Anh Tuấn, Lê Quốc Tuấn, Triệu Khắc Vinh & Thế Sơn
    02:11:37.272 : vi:28. MC: Châu Đình An
    02:11:54.336 : vi:29. Đợi Chờ - Phương Trang
    02:16:11.168 : vi:30. Quê Hương Là Người Đó - Diễm Liên
    02:22:30.202 : vi:31. MC: Nam Lộc & Leyna Nguyễn
    02:26:47.128 : vi:32. Đêm Nhớ Trăng Sài Gòn - Lệ Thu
    02:31:38.048 : vi:33. MC: Nam Lộc & Thùy Dương, Leyna Nguyễn
    02:34:29.888 : vi:34. Tiếng Dân Chài - Hoàng Quân & Các Nghệ Sĩ
    02:40:23.442 : vi:35. Finale



    [​IMG] [​IMG] [​IMG] [​IMG] [​IMG] [​IMG] [​IMG] [​IMG] [​IMG] [​IMG] [​IMG] [​IMG] [​IMG] [​IMG] [​IMG] [​IMG] [​IMG] [​IMG] [​IMG] [​IMG] [​IMG]


    One Link :


    [​IMG]

    Nhấn nút Cảm ơn (dưới chân bài) để thấy link!


    [​IMG]

    Nhấn nút Cảm ơn (dưới chân bài) để thấy link!



    [​IMG]
     
    Chỉnh sửa cuối: 28/6/18
    Dmhcm, GiaTuyen, listerine and 509 others like this.
  2. ricky075

    ricky075 New Member

    Tham gia ngày:
    5/12/12
    Bài viết:
    5
    Đã được cảm ơn:
    16
    Điểm thành tích:
    3
    Tiền:
    225 CR
    Cám ơn bạn.
     
  3. vuhd

    vuhd Active Member

    Tham gia ngày:
    31/5/10
    Bài viết:
    240
    Đã được cảm ơn:
    82
    Điểm thành tích:
    28
    Giới tính:
    Nam
    Nghề nghiệp:
    Quảng cáo
    Nơi ở:
    HCM
    Web:
    Tiền:
    721 CR
    CÁM ƠN ADD.
     
    #3 +1 CR
    dung78 cảm ơn bài này.
  4. chuabanoidoc

    chuabanoidoc Well-Known Member

    Tham gia ngày:
    27/3/10
    Bài viết:
    356
    Đã được cảm ơn:
    398
    Điểm thành tích:
    63
    Tiền:
    3,514 CR
    Cám ơn bạn,mình đang hóng bản Blu ray của bạn
     
  5. d1dragon

    d1dragon New Member

    Tham gia ngày:
    8/12/12
    Bài viết:
    5
    Đã được cảm ơn:
    0
    Điểm thành tích:
    1
    Tiền:
    60 CR
    Thankss
     
    #5 +1 CR
  6. dung78

    dung78 New Member

    Tham gia ngày:
    19/2/10
    Bài viết:
    2
    Đã được cảm ơn:
    1
    Điểm thành tích:
    3
    Tiền:
    62 CR
    thanks
     
    #6 +1 CR
  7. noingena

    noingena Well-Known Member

    Tham gia ngày:
    27/11/09
    Bài viết:
    835
    Đã được cảm ơn:
    1,402
    Điểm thành tích:
    93
    Giới tính:
    Nam
    Nghề nghiệp:
    Kinh Doanh
    Nơi ở:
    Sài Gòn
    Tiền:
    823 CR
    thank bác chũ
     
    #7 +1 CR
  8. toithichmusic

    toithichmusic Member

    Tham gia ngày:
    29/7/10
    Bài viết:
    265
    Đã được cảm ơn:
    9
    Điểm thành tích:
    18
    Tiền:
    445 CR
    Xin cảm ơn đã chia sẻ!
     
  9. hailua63

    hailua63 Active Member

    Tham gia ngày:
    3/10/10
    Bài viết:
    176
    Đã được cảm ơn:
    32
    Điểm thành tích:
    28
    Nghề nghiệp:
    nông dân
    Nơi ở:
    Việt Nam
    Tiền:
    947 CR
    cám ơn Bác Chủ rất nhiều, em chờ mãi, chờ mãi rồi cũng được Bác giúp.
     
  10. hailua63

    hailua63 Active Member

    Tham gia ngày:
    3/10/10
    Bài viết:
    176
    Đã được cảm ơn:
    32
    Điểm thành tích:
    28
    Nghề nghiệp:
    nông dân
    Nơi ở:
    Việt Nam
    Tiền:
    947 CR
    cám ơn Bác Chủ rất nhiều, em chờ mãi, chờ mãi rồi cũng được Bác giúp.
     
  11. hienthao

    hienthao New Member

    Tham gia ngày:
    23/10/10
    Bài viết:
    6
    Đã được cảm ơn:
    21
    Điểm thành tích:
    3
    Tiền:
    26 CR
     
    fsvnhd, hungdaonam, huyqpham and 2 others like this.
  12. donvo

    donvo New Member

    Tham gia ngày:
    29/7/18
    Bài viết:
    2
    Đã được cảm ơn:
    2
    Điểm thành tích:
    3
    Tiền:
    2 CR
    Cam on ban nha
     
    #12 +1 CR
  13. binhky

    binhky New Member

    Tham gia ngày:
    19/7/09
    Bài viết:
    13
    Đã được cảm ơn:
    7
    Điểm thành tích:
    3
    Tiền:
    113 CR
    Cám ơn bạn nhé !
     
    #13 +1 CR
  14. boyxinh173

    boyxinh173 Active Member

    Tham gia ngày:
    11/9/12
    Bài viết:
    309
    Đã được cảm ơn:
    32
    Điểm thành tích:
    28
    Tiền:
    203 CR
    cảm ơn bác
     
  15. cuteo629

    cuteo629 New Member

    Tham gia ngày:
    12/7/18
    Bài viết:
    13
    Đã được cảm ơn:
    0
    Điểm thành tích:
    1
    Giới tính:
    Nam
    Tiền:
    13 CR
    thanks
     

Chia sẻ trang này