[Fshare] [Ca Nhạc] Paris by Night 120 -Còn Chút Gì Để Nhớ (2016) [1080p BluRay DD2.0 x264-EbP]

Thảo luận trong 'HD Video Clip' bắt đầu bởi coduocgidau, 26/12/16.

  1. coduocgidau

    coduocgidau Uploader

    Tham gia ngày:
    14/11/12
    Bài viết:
    26,094
    Đã được cảm ơn:
    580,362
    [Ca Nhạc] Paris by Night 120 -Còn Chút Gì Để Nhớ (2016) [1080p BluRay DD2.0 x264-EbP]​


    [​IMG]

    [​IMG]
    Mã:

    
    	

    General Unique ID : 198049284276225385652905921397534916988 (0x94FEE79AC2A0D3A5B9F5E485D8CE817C) Complete name : E:\Converter\Paris By Night 120 Bluray\Paris by Night 120 - Con Chut Gi De Nho 2016 1080p BluRay DD2.0 x264-EbP\Paris by Night 120 - Con Chut Gi De Nho 2016 1080p BluRay DD2.0 x264-EbP.mkv Format : Matroska Format version : Version 4 / Version 2 File size : 26.2 GiB Duration : 5 h 48 min Overall bit rate : 10.8 Mb/s Encoded date : UTC 2016-12-25 08:51:08 Writing application : mkvmerge v9.6.0 ('Slave To Your Mind') 64bit Writing library : libebml v1.3.4 + libmatroska v1.4.5 Cover : Yes Attachments : Cover - Paris by Night 120.jpg Video ID : 1 Format : AVC Format/Info : Advanced Video Codec Format profile : High@L4.1 Format settings, CABAC : Yes Format settings, ReFrames : 4 frames Codec ID : V_MPEG4/ISO/AVC Duration : 5 h 48 min Bit rate : 10.3 Mb/s Width : 1 920 pixels Height : 1 080 pixels Display aspect ratio : 16:9 Frame rate mode : Constant Frame rate : 29.970 (30000/1001) FPS Color space : YUV Chroma subsampling : 4:2:0 Bit depth : 8 bits Scan type : Progressive Bits/(Pixel*Frame) : 0.166 Stream size : 25.1 GiB (96%) Title : Paris by Night 120 - Còn Chút Gì Để Nhớ 2016 | 1080p | EbP | Writing library : x264 core 148 r2744 b97ae06 Encoding settings : cabac=1 / ref=4 / deblock=1:-2:-2 / analyse=0x3:0x133 / me=umh / subme=10 / psy=1 / psy_rd=1.05:0.00 / mixed_ref=1 / me_range=16 / chroma_me=1 / trellis=2 / 8x8dct=1 / cqm=0 / deadzone=21,11 / fast_pskip=0 / chroma_qp_offset=-2 / threads=34 / lookahead_threads=5 / sliced_threads=0 / nr=0 / decimate=0 / interlaced=0 / bluray_compat=0 / constrained_intra=0 / bframes=7 / b_pyramid=2 / b_adapt=2 / b_bias=0 / direct=3 / weightb=1 / open_gop=0 / weightp=2 / keyint=250 / keyint_min=25 / scenecut=40 / intra_refresh=0 / rc=crf / mbtree=0 / crf=19.0 / qcomp=0.60 / qpmin=0 / qpmax=69 / qpstep=4 / ip_ratio=1.40 / pb_ratio=1.30 / aq=3:0.75 Language : Vietnamese Default : Yes Forced : No Audio ID : 2 Format : AC-3 Format/Info : Audio Coding 3 Mode extension : CM (complete main) Format settings, Endianness : Big Codec ID : A_AC3 Duration : 5 h 48 min Bit rate mode : Constant Bit rate : 448 kb/s Channel(s) : 2 channels Channel positions : Front: L R Sampling rate : 48.0 kHz Frame rate : 31.250 FPS (1536 spf) Bit depth : 16 bits Compression mode : Lossy Stream size : 1.09 GiB (4%) Title : AC-3 | DD 2.0 @ 448 Kbps | Language : Vietnamese Default : Yes Forced : No Menu 00:00:00.000 : vi:01. PARIS by NIGHT - 120 00:01:16.209 : vi:02. Tôi Muốn Về Quê (Gió Bụi) - Nguyễn Hồng Nhung 00:09:04.177 : vi:03. Lời Mở Đầu – Nguyễn Ngọc Ngạn, Kỳ Duyên 00:11:17.911 : vi:04. Vợ Chồng Quê (Phạm Duy) - Ngọc Hạ, Thiên Tôn 00:18:49.161 : vi:05. Những Đêm Dài Không Ngủ (Đào Duy) - Hạ Vy 00:22:41.093 : vi:06. Mưa Nửa Đêm (Trúc Phương) - Tâm Đoan 00:27:07.226 : vi:07. Thói Đời (Trúc Phương) - Hoài Lâm 00:34:33.838 : vi:08. Tình Ghen (Vũ Xuân Hùng) - Như Loan 00:38:27.105 : vi:09. Lời Thề Xưa (LV: Nhật Ngân) - Diễm Sương 00:42:24.542 : vi:10. Phỏng Vấn - Hoa Hậu Phu Nhân Thu Hoài – Viện Thẩm Mỹ Khơ Thị 00:46:33.691 : vi:11. Một Thời Để Nhớ (Trầm Tử Thiêng) - Thái Châu 00:50:53.751 : vi:12. Hối Tiếc (Trầm Tử Thiêng) - Ngọc Anh 00:59:23.226 : vi:13. Hãy Để Anh Xin Lỗi Em (Võ Hoài Phúc) - Lương Tùng Quang 01:04:42.879 : vi:14. Hài Kịch “Kế Hoạch Hoàn Hảo” (Huỳnh Tiến Khoa) - Hoài Linh, Chí Tài, Trường Giang, Thúy Nga, Hoài Tâm 01:44:41.942 : vi:15. Phỏng Vấn - Lê Anh Tuấn & Đố Vui Khán Giả 01:53:17.224 : vi:16. Ngày Mai Chuyện Đã Khác (Nhạc: Huỳnh Hải Long, Lời: Hakkota Dũng Hà) - Mai Tiến Dũng 01:57:57.203 : vi:17. Phỏng Vấn - LS Phạm Ngọc Bảo & Đố Vui Khán Giả 02:12:39.151 : vi:18. Còn Chút Gì Để Nhớ (Thơ: Vũ Hữu Định, Nhạc: Phạm Duy) - Vũ Khanh 02:20:15.707 : vi:19. Những Mùa Thu Qua Trên Cuộc Tình Tôi (Trường Sa) - Đình Bảo, Lam Anh 02:30:00.158 : vi:20. Khói Lam Chiều (Lan Đài) - Mai Thiên Vân 02:39:24.789 : vi:21. Những Ngày Xưa Thân Ái (Phạm Thế Mỹ) - Ngọc Ngữ, Mai Quốc Huy 02:47:22.599 : vi:22. Sao Anh Đành Phụ Em (Thái Thịnh) - Phi Nhung 02:53:10.480 : vi:23. Phỏng Vấn - Phi Nhung 02:57:42.252 : vi:24. Đừng (Mạnh Quân) - Lê Anh Tuấn 03:01:54.337 : vi:25. Nothing Is Gonna Change My Love (Mạnh Quân) - Hoàng Mỹ An 03:06:01.250 : vi:26. Phỏng Vấn - Lê Anh Tuấn 03:10:47.536 : vi:27. Hài Kịch “Những Ước Mơ Nhỏ Nhoi” (Trường Giang) - Hoài Linh, Chí Tài, Trường Giang 03:45:36.023 : vi:28. Thương Nhớ Người Dưng (Nguyễn Nhất Huy) - Hương Thủy, Châu Ngọc Hà 03:50:58.745 : vi:29. Phỏng Vấn - Daniel Phú & Đố Vui Khán Giả Với Tâm Đoan 03:59:21.480 : vi:30. Mẹ Tôi (Trần Tiến) - Bằng Kiều, Hà Trần 04:08:04.870 : vi:31. Không Bao Giờ Quên Anh (Hoàng Trang) - Thanh Tuyền 04:15:50.936 : vi:32. Chuyện Tình Không Dĩ Vãng (Tâm Anh) - Như Quỳnh 04:23:57.855 : vi:33. Sài Gòn Vắng Em (Nhạc: Dương Khắc Linh, Lời: Hoàng Huy Long) - Justin Nguyễn 04:30:40.591 : vi:34. Tình Nhớ (Trịnh Công Sơn) - Hoàng Nhung 04:36:28.639 : vi:35. Đố Vui Khán Giả Với Ngọc Anh 04:47:05.809 : vi:36. Chắp Tay Lạy Người (Trúc Phương) - Đan Nguyên 04:52:22.525 : vi:37. Đố Vui Khán Giả Với Mai Thiên Vân 05:05:47.663 : vi:38. Sau Ngày Ấy (Võ Hoài Phúc) - Minh Tuyết 05:14:23.878 : vi:39. Anh Kể Em Nghe (Nguyễn Hải Phong) - Tóc Tiên 05:21:31.606 : vi:40. Thuở Ấy Có Em (Huỳnh Anh) - Chế Linh 05:29:50.204 : vi:41. Tình Yêu Còn Lại (LV: Thái Thịnh) - Don Hồ, Lam Anh 05:35:01.114 : vi:42. Lời Kết – Nguyễn Ngọc Ngạn, Kỳ Duyên 05:38:07.100 : vi:43. Cỏ Nhớ Tên Em (Tấn Phát) - Nguyễn Hưng 05:43:49.442 : vi:44. Finale 05:48:30.123 : vi:45. End
    https://www.fshare.vn/file/FHVPOXG3UPRD
     

Chia sẻ trang này