[Fshare] Casino Royale 2006 UNCUT ViE 1080p BluRay AC3 x264-CtrlHD

Thảo luận trong 'Phim có audio Việt' bắt đầu bởi tamquocgia94, 22/5/20.

  1. tamquocgia94

    tamquocgia94 Well-Known Member

    Tham gia ngày:
    30/10/17
    Bài viết:
    1,342
    Đã được cảm ơn:
    41,971
    Giới tính:
    Nam
    Nghề nghiệp:
    Osin tổng thống
    Nơi ở:
    Dubai
    Casino Royale 2006 UNCUT ViE 1080p BluRay AC3 x264-CtrlHD
    (Daniel Craig, Eva Green, Caterina Murino, Judi Dench)
    Thuyết Minh + Sub Việt Mux Sẵn
    [​IMG]
    [​IMG]

    Mã:
    General
    Unique ID                   : 225924145640470866326815899274989780242 (0xA9F76860A8DC20CD9A3C239372DBBD12)
    Complete name               : C:\Users\tamquocgia\Downloads\Casino.Royale.2006.UNCUT.ViE.1080p.BluRay.DTS.x264-CtrlHD.mkv
    Format                      : Matroska
    Format version              : Version 4 / Version 2
    File size                   : 17.8 GiB
    Duration                    : 2h 24mn
    Overall bit rate            : 17.6 Mbps
    Movie name                  : Casino Royale  (2160p x265 10bit FS96 Joy)bUTRB
    Encoded date                : UTC 2020-05-22 02:28:33
    
    
    Writing application         : mkvmerge v7.9.0 ('Birds') 32bit
    Writing library             : libebml v1.3.1 + libmatroska v1.4.2
    Cover                       : Yes
    Attachments                 : cover.jpg
    Video
    ID                          : 1
    Format                      : AVC
    Format/Info                 : Advanced Video Codec
    Format profile              : High@L4.1
    Format settings, CABAC      : Yes
    Format settings, ReFrames   : 5 frames
    Codec ID                    : V_MPEG4/ISO/AVC
    Duration                    : 2h 24mn
    Bit rate                    : 16.1 Mbps
    Width                       : 1 920 pixels
    Height                      : 800 pixels
    Display aspect ratio        : 2.40:1
    Frame rate mode             : Constant
    Frame rate                  : 23.976 (24000/1001) fps
    Color space                 : YUV
    Chroma subsampling          : 4:2:0
    Bit depth                   : 8 bits
    Scan type                   : Progressive
    Bits/(Pixel*Frame)          : 0.437
    Stream size                 : 16.3 GiB (91%)
    Writing library             : x264 core 128 r2216kMod 198a7ea
    Encoding settings           : cabac=1 / ref=5 / deblock=1:-3:-3 / analyse=0x3:0x113 / me=umh / subme=9 / psy=1 / fade_compensate=0.00 / psy_rd=1.15:0.00 / mixed_ref=1 / me_range=16 / chroma_me=1 / trellis=2 / 8x8dct=1 / cqm=0 / deadzone=21,11 / fast_pskip=0 / chroma_qp_offset=-2 / threads=6 / lookahead_threads=1 / sliced_threads=0 / nr=0 / decimate=0 / interlaced=0 / bluray_compat=0 / constrained_intra=0 / bframes=8 / b_pyramid=2 / b_adapt=2 / b_bias=0 / direct=3 / weightb=1 / open_gop=0 / weightp=2 / keyint=250 / keyint_min=23 / scenecut=40 / intra_refresh=0 / rc=crf / mbtree=0 / crf=19.0000 / qcomp=0.72 / qpmin=0 / qpmax=69 / qpstep=4 / ip_ratio=1.40 / pb_ratio=1.30 / aq=1:0.70
    Language                    : English
    Default                     : No
    Forced                      : No
    Audio #1
    ID                          : 2
    Format                      : AC-3
    Format/Info                 : Audio Coding 3
    Mode extension              : CM (complete main)
    Format settings, Endianness : Big
    Codec ID                    : A_AC3
    Duration                    : 2h 24mn
    Bit rate mode               : Constant
    Bit rate                    : 640 Kbps
    Channel(s)                  : 2 channels
    Channel positions           : Front: L R
    Sampling rate               : 48.0 KHz
    Frame rate                  : 31.250 fps (1536 spf)
    Compression mode            : Lossy
    Stream size                 : 662 MiB (4%)
    Title                       : Mux by tamquocgia94.HDVN
    Language                    : Vietnamese
    Default                     : No
    Forced                      : No
    Audio #2
    ID                          : 3
    Format                      : DTS
    Format/Info                 : Digital Theater Systems
    Mode                        : 16
    Format settings, Endianness : Big
    Codec ID                    : A_DTS
    Duration                    : 2h 24mn
    Bit rate mode               : Constant
    Bit rate                    : 768 Kbps
    Channel(s)                  : 6 channels
    Channel positions           : Front: L C R, Side: L R, LFE
    Sampling rate               : 48.0 KHz
    Frame rate                  : 93.750 fps (512 spf)
    Bit depth                   : 24 bits
    Compression mode            : Lossy
    Stream size                 : 794 MiB (4%)
    Language                    : English
    Default                     : Yes
    Forced                      : No
    Audio #3
    ID                          : 4
    Format                      : AAC
    Format/Info                 : Advanced Audio Codec
    Format profile              : LC
    Codec ID                    : A_AAC
    Duration                    : 2h 24mn
    Bit rate                    : 85.2 Kbps
    Channel(s)                  : 2 channels
    Channel positions           : Front: L R
    Sampling rate               : 48.0 KHz
    Frame rate                  : 46.875 fps (1024 spf)
    Compression mode            : Lossy
    Stream size                 : 88.1 MiB (0%)
    Title                       : Commentary
    Language                    : English
    Default                     : No
    Forced                      : No
    Text #1
    ID                          : 5
    Format                      : UTF-8
    Codec ID                    : S_TEXT/UTF8
    Codec ID/Info               : UTF-8 Plain Text
    Duration                    : 2h 19mn
    Bit rate                    : 36 bps
    Count of elements           : 1043
    Stream size                 : 37.6 KiB (0%)
    Language                    : Vietnamese
    Default                     : Yes
    Forced                      : No
    Text #2
    ID                          : 6
    Format                      : UTF-8
    Codec ID                    : S_TEXT/UTF8
    Codec ID/Info               : UTF-8 Plain Text
    Duration                    : 2h 23mn
    Bit rate                    : 28 bps
    Count of elements           : 1065
    Stream size                 : 29.6 KiB (0%)
    Language                    : Croatian
    Default                     : No
    Forced                      : No
    Text #3
    ID                          : 7
    Format                      : UTF-8
    Codec ID                    : S_TEXT/UTF8
    Codec ID/Info               : UTF-8 Plain Text
    Duration                    : 2h 23mn
    Bit rate                    : 29 bps
    Count of elements           : 1029
    Stream size                 : 31.5 KiB (0%)
    Language                    : Czech
    Default                     : No
    Forced                      : No
    Text #4
    ID                          : 8
    Format                      : UTF-8
    Codec ID                    : S_TEXT/UTF8
    Codec ID/Info               : UTF-8 Plain Text
    Duration                    : 2h 23mn
    Bit rate                    : 28 bps
    Count of elements           : 847
    Stream size                 : 30.3 KiB (0%)
    Language                    : Danish
    Default                     : No
    Forced                      : No
    Text #5
    ID                          : 9
    Format                      : UTF-8
    Codec ID                    : S_TEXT/UTF8
    Codec ID/Info               : UTF-8 Plain Text
    Duration                    : 2h 23mn
    Bit rate                    : 31 bps
    Count of elements           : 1035
    Stream size                 : 33.3 KiB (0%)
    Language                    : English
    Default                     : No
    Forced                      : No
    Text #6
    ID                          : 10
    Format                      : UTF-8
    Codec ID                    : S_TEXT/UTF8
    Codec ID/Info               : UTF-8 Plain Text
    Duration                    : 2h 23mn
    Bit rate                    : 29 bps
    Count of elements           : 980
    Stream size                 : 31.5 KiB (0%)
    Language                    : Spanish
    Default                     : No
    Forced                      : No
    Text #7
    ID                          : 11
    Format                      : UTF-8
    Codec ID                    : S_TEXT/UTF8
    Codec ID/Info               : UTF-8 Plain Text
    Duration                    : 2h 23mn
    Bit rate                    : 29 bps
    Count of elements           : 1042
    Stream size                 : 31.2 KiB (0%)
    Language                    : Spanish
    Default                     : No
    Forced                      : No
    Text #8
    ID                          : 12
    Format                      : UTF-8
    Codec ID                    : S_TEXT/UTF8
    Codec ID/Info               : UTF-8 Plain Text
    Duration                    : 2h 23mn
    Bit rate                    : 25 bps
    Count of elements           : 940
    Stream size                 : 26.5 KiB (0%)
    Language                    : Finnish
    Default                     : No
    Forced                      : No
    Text #9
    ID                          : 13
    Format                      : UTF-8
    Codec ID                    : S_TEXT/UTF8
    Codec ID/Info               : UTF-8 Plain Text
    Duration                    : 2h 23mn
    Bit rate                    : 25 bps
    Count of elements           : 916
    Stream size                 : 26.9 KiB (0%)
    Language                    : French
    Default                     : No
    Forced                      : No
    Text #10
    ID                          : 14
    Format                      : UTF-8
    Codec ID                    : S_TEXT/UTF8
    Codec ID/Info               : UTF-8 Plain Text
    Duration                    : 2h 23mn
    Bit rate                    : 27 bps
    Count of elements           : 899
    Stream size                 : 28.9 KiB (0%)
    Language                    : German
    Default                     : No
    Forced                      : No
    Text #11
    ID                          : 15
    Format                      : UTF-8
    Codec ID                    : S_TEXT/UTF8
    Codec ID/Info               : UTF-8 Plain Text
    Duration                    : 2h 23mn
    Bit rate                    : 24 bps
    Count of elements           : 970
    Stream size                 : 25.9 KiB (0%)
    Language                    : Hungarian
    Default                     : No
    Forced                      : No
    Text #12
    ID                          : 16
    Format                      : UTF-8
    Codec ID                    : S_TEXT/UTF8
    Codec ID/Info               : UTF-8 Plain Text
    Duration                    : 2h 23mn
    Bit rate                    : 33 bps
    Count of elements           : 1034
    Stream size                 : 34.8 KiB (0%)
    Language                    : Icelandic
    Default                     : No
    Forced                      : No
    Text #13
    ID                          : 17
    Format                      : UTF-8
    Codec ID                    : S_TEXT/UTF8
    Codec ID/Info               : UTF-8 Plain Text
    Duration                    : 2h 23mn
    Bit rate                    : 33 bps
    Count of elements           : 1031
    Stream size                 : 35.7 KiB (0%)
    Language                    : Indonesian
    Default                     : No
    Forced                      : No
    Text #14
    ID                          : 18
    Format                      : UTF-8
    Codec ID                    : S_TEXT/UTF8
    Codec ID/Info               : UTF-8 Plain Text
    Duration                    : 2h 23mn
    Bit rate                    : 33 bps
    Count of elements           : 1059
    Stream size                 : 35.1 KiB (0%)
    Language                    : Italian
    Default                     : No
    Forced                      : No
    Text #15
    ID                          : 19
    Format                      : UTF-8
    Codec ID                    : S_TEXT/UTF8
    Codec ID/Info               : UTF-8 Plain Text
    Duration                    : 2h 23mn
    Bit rate                    : 29 bps
    Count of elements           : 966
    Stream size                 : 30.8 KiB (0%)
    Language                    : Dutch
    Default                     : No
    Forced                      : No
    Text #16
    ID                          : 20
    Format                      : UTF-8
    Codec ID                    : S_TEXT/UTF8
    Codec ID/Info               : UTF-8 Plain Text
    Duration                    : 2h 23mn
    Bit rate                    : 23 bps
    Count of elements           : 924
    Stream size                 : 24.9 KiB (0%)
    Language                    : Norwegian
    Default                     : No
    Forced                      : No
    Text #17
    ID                          : 21
    Format                      : UTF-8
    Codec ID                    : S_TEXT/UTF8
    Codec ID/Info               : UTF-8 Plain Text
    Duration                    : 2h 23mn
    Bit rate                    : 24 bps
    Count of elements           : 974
    Stream size                 : 25.8 KiB (0%)
    Language                    : Polish
    Default                     : No
    Forced                      : No
    Text #18
    ID                          : 22
    Format                      : UTF-8
    Codec ID                    : S_TEXT/UTF8
    Codec ID/Info               : UTF-8 Plain Text
    Duration                    : 2h 23mn
    Bit rate                    : 30 bps
    Count of elements           : 995
    Stream size                 : 31.8 KiB (0%)
    Language                    : Portuguese
    Default                     : No
    Forced                      : No
    Text #19
    ID                          : 23
    Format                      : UTF-8
    Codec ID                    : S_TEXT/UTF8
    Codec ID/Info               : UTF-8 Plain Text
    Duration                    : 2h 23mn
    Bit rate                    : 26 bps
    Count of elements           : 976
    Stream size                 : 28.0 KiB (0%)
    Language                    : Portuguese
    Default                     : No
    Forced                      : No
    Text #20
    ID                          : 24
    Format                      : UTF-8
    Codec ID                    : S_TEXT/UTF8
    Codec ID/Info               : UTF-8 Plain Text
    Duration                    : 2h 23mn
    Bit rate                    : 34 bps
    Count of elements           : 1053
    Stream size                 : 36.9 KiB (0%)
    Language                    : Romanian
    Default                     : No
    Forced                      : No
    Text #21
    ID                          : 25
    Format                      : UTF-8
    Codec ID                    : S_TEXT/UTF8
    Codec ID/Info               : UTF-8 Plain Text
    Duration                    : 2h 23mn
    Bit rate                    : 25 bps
    Count of elements           : 1071
    Stream size                 : 26.4 KiB (0%)
    Language                    : Slovenian
    Default                     : No
    Forced                      : No
    Text #22
    ID                          : 26
    Format                      : UTF-8
    Codec ID                    : S_TEXT/UTF8
    Codec ID/Info               : UTF-8 Plain Text
    Duration                    : 2h 23mn
    Bit rate                    : 28 bps
    Count of elements           : 1057
    Stream size                 : 30.3 KiB (0%)
    Language                    : Serbian
    Default                     : No
    Forced                      : No
    Text #23
    ID                          : 27
    Format                      : UTF-8
    Codec ID                    : S_TEXT/UTF8
    Codec ID/Info               : UTF-8 Plain Text
    Duration                    : 2h 23mn
    Bit rate                    : 25 bps
    Count of elements           : 698
    Stream size                 : 26.9 KiB (0%)
    Language                    : Swedish
    Default                     : No
    Forced                      : No
    Text #24
    ID                          : 28
    Format                      : UTF-8
    Codec ID                    : S_TEXT/UTF8
    Codec ID/Info               : UTF-8 Plain Text
    Duration                    : 2h 23mn
    Bit rate                    : 32 bps
    Count of elements           : 1000
    Stream size                 : 34.2 KiB (0%)
    Language                    : Turkish
    Default                     : No
    Forced                      : No
    Text #25
    ID                          : 29
    Format                      : UTF-8
    Codec ID                    : S_TEXT/UTF8
    Codec ID/Info               : UTF-8 Plain Text
    Duration                    : 2h 24mn
    Bit rate                    : 117 bps
    Count of elements           : 2545
    Stream size                 : 124 KiB (0%)
    Title                       : Commentary
    Language                    : English
    Default                     : No
    Forced                      : No
    Text #26
    ID                          : 30
    Format                      : UTF-8
    Codec ID                    : S_TEXT/UTF8
    Codec ID/Info               : UTF-8 Plain Text
    Duration                    : 2h 24mn
    Bit rate                    : 110 bps
    Count of elements           : 2536
    Stream size                 : 117 KiB (0%)
    Title                       : Commentary
    Language                    : Spanish
    Default                     : No
    Forced                      : No
    Text #27
    ID                          : 31
    Format                      : UTF-8
    Codec ID                    : S_TEXT/UTF8
    Codec ID/Info               : UTF-8 Plain Text
    Duration                    : 2h 24mn
    Bit rate                    : 103 bps
    Count of elements           : 2522
    Stream size                 : 110 KiB (0%)
    Title                       : Commentary
    Language                    : French
    Default                     : No
    Forced                      : No
    Text #28
    ID                          : 32
    Format                      : UTF-8
    Codec ID                    : S_TEXT/UTF8
    Codec ID/Info               : UTF-8 Plain Text
    Duration                    : 2h 24mn
    Bit rate                    : 112 bps
    Count of elements           : 2563
    Stream size                 : 119 KiB (0%)
    Title                       : Commentary
    Language                    : German
    Default                     : No
    Forced                      : No
    Text #29
    ID                          : 33
    Format                      : UTF-8
    Codec ID                    : S_TEXT/UTF8
    Codec ID/Info               : UTF-8 Plain Text
    Duration                    : 2h 24mn
    Bit rate                    : 119 bps
    Count of elements           : 2548
    Stream size                 : 126 KiB (0%)
    Title                       : Commentary
    Language                    : Italian
    Default                     : No
    Forced                      : No
    Text #30
    ID                          : 34
    Format                      : UTF-8
    Codec ID                    : S_TEXT/UTF8
    Codec ID/Info               : UTF-8 Plain Text
    Duration                    : 2h 24mn
    Bit rate                    : 83 bps
    Count of elements           : 2203
    Stream size                 : 87.9 KiB (0%)
    Title                       : Commentary
    Language                    : Dutch
    Default                     : No
    Forced                      : No
    Text #31
    ID                          : 35
    Format                      : UTF-8
    Codec ID                    : S_TEXT/UTF8
    Codec ID/Info               : UTF-8 Plain Text
    Duration                    : 2h 24mn
    Bit rate                    : 103 bps
    Count of elements           : 2542
    Stream size                 : 110 KiB (0%)
    Title                       : Commentary
    Language                    : Portuguese
    Default                     : No
    Forced                      : No
    Menu
    00:00:00.000                : en:Chapter 1
    00:09:37.285                : en:Chapter 2
    00:19:30.503                : en:Chapter 3
    00:25:35.325                : en:Chapter 4
    00:35:18.241                : en:Chapter 5
    00:39:58.855                : en:Chapter 6
    00:45:21.761                : en:Chapter 7
    00:57:50.384                : en:Chapter 8
    01:07:21.621                : en:Chapter 9
    01:17:11.377                : en:Chapter 10
    01:30:05.400                : en:Chapter 11
    01:38:40.498                : en:Chapter 12
    01:43:28.953                : en:Chapter 13
    01:54:02.377                : en:Chapter 14
    02:05:44.704                : en:Chapter 15
    02:13:19.033                : en:Chapter 16
    Link Tải Phim
    Nhấn nút Cảm ơn (dưới chân bài) để thấy link!

    Các Phần Khác
    Nhấn nút Cảm ơn (dưới chân bài) để thấy link!
     

Chia sẻ trang này