[Chính kịch/Hình sự] Shoplifters 2018 TW Blu-ray REMUX 1080p AVC TrueHD 5.1 ~ Gia Đình Đạo Tặc

Thảo luận trong 'Bluray Remux' bắt đầu bởi adm820, 24/2/20.

  1. adm820

    adm820 Moderator Thành viên BQT

    Tham gia ngày:
    1/12/10
    Bài viết:
    7,123
    Đã được cảm ơn:
    163,606
    Giới tính:
    Nam
    [​IMG]

    upload_2020-2-24_17-2-20.png


    Mã:
    General
    
    
    	

    Unique ID : 25941636928176685798367658885345120104 (0x13842D730A8D6F24D1D4ACB8175B0F68)

    Complete name : C:\Users\Administrator\Downloads\Shoplifters 2018 TW Blu-ray REMUX 1080p AVC TrueHD 5.1.mkv Format : Matroska Format version : Version 4 File size : 23.4 GiB Duration : 2 h 0 min Overall bit rate mode : Variable Overall bit rate : 27.8 Mb/s Encoded date : UTC 2020-02-24 08:49:21 Writing application : mkvmerge v42.0.0 ('Overtime') 64-bit Writing library : libebml v1.3.10 + libmatroska v1.5.2 Video ID : 1 Format : AVC Format/Info : Advanced Video Codec Format profile : High@L4.1 Format settings : CABAC / 4 Ref Frames Format settings, CABAC : Yes Format settings, Reference : 4 frames Codec ID : V_MPEG4/ISO/AVC Duration : 2 h 0 min Bit rate mode : Variable Bit rate : 24.0 Mb/s Maximum bit rate : 35.0 Mb/s Width : 1 920 pixels Height : 1 080 pixels Display aspect ratio : 16:9 Frame rate mode : Constant Frame rate : 24.000 FPS Standard : NTSC Color space : YUV Chroma subsampling : 4:2:0 Bit depth : 8 bits Scan type : Progressive Bits/(Pixel*Frame) : 0.482 Stream size : 20.2 GiB (86%) Language : Japanese Default : Yes Forced : No Color range : Limited Color primaries : BT.709 Transfer characteristics : BT.709 Matrix coefficients : BT.709 Audio #1 ID : 2 Format : MLP FBA Format/Info : Meridian Lossless Packing FBA Commercial name : Dolby TrueHD Codec ID : A_TRUEHD Duration : 2 h 0 min Bit rate mode : Variable Bit rate : 3 115 kb/s Maximum bit rate : 4 413 kb/s Channel(s) : 6 channels Channel layout : L R C LFE Ls Rs Sampling rate : 48.0 kHz Frame rate : 1 200.000 FPS (40 SPF) Compression mode : Lossless Stream size : 2.62 GiB (11%) Language : Japanese Default : Yes Forced : No Audio #2 ID : 3 Format : AC-3 Format/Info : Audio Coding 3 Commercial name : Dolby Digital Codec ID : A_AC3 Duration : 2 h 0 min Bit rate mode : Constant Bit rate : 640 kb/s Channel(s) : 6 channels Channel layout : L R C LFE Ls Rs Sampling rate : 48.0 kHz Frame rate : 31.250 FPS (1536 SPF) Compression mode : Lossy Stream size : 552 MiB (2%) Language : Japanese Service kind : Complete Main Default : No Forced : No Text ID : 4 Format : PGS Muxing mode : zlib Codec ID : S_HDMV/PGS Codec ID/Info : Picture based subtitle format used on BDs/HD-DVDs Duration : 1 h 54 min Bit rate : 24.1 kb/s Count of elements : 2594 Stream size : 19.8 MiB (0%) Language : Vietnamese Default : Yes Forced : No
    [​IMG] [​IMG] [​IMG] [​IMG] [​IMG] [​IMG] [​IMG] [​IMG]



    Link tải (đã mux sẵn phụ đề Tiếng Việt )

    Nhấn nút Cảm ơn (dưới chân bài) để thấy link!

     
  2. ba0ngan

    ba0ngan Member

    Tham gia ngày:
    17/10/19
    Bài viết:
    48
    Đã được cảm ơn:
    34
    Giới tính:
    Nữ
    Nghề nghiệp:
    electric
    Nơi ở:
    HCM
    thanh ciu... :D
     

Chia sẻ trang này