[MULTI] Dino Autospy 2007 1080i HDTV-KhoHD - Khám Nghiệm Khủng Long

Thảo luận trong 'Phim tài liệu - Documentaries' bắt đầu bởi hoaitrung, 30/4/14.

  1. hoaitrung

    hoaitrung Moderator Thành viên BQT

    Tham gia ngày:
    13/12/09
    Bài viết:
    2,805
    Đã được cảm ơn:
    85,930
    Giới tính:
    Nam
    Nghề nghiệp:
    HD Documentaries
    Nơi ở:
    Việt Nam
    Dino Autospy 2007 1080i HDTV-KhoHD
    Khám Nghiệm Khủng Long
    Phụ Đề Việt Ngữ


    [​IMG]
    67 triệu năm trước, một kẻ khổng lồ đã sống và chết, rồi bị chôn vùi trong lòng đất. Nhưng thứ còn sót lại không chỉ là xương của nó, nó đã trở thành xác ướp. Vảy, da và mô của nó được bảo quản qua thời gian. Làm đổi thay hiểu biết của ta về một loài đã tuyệt chủng, và đưa những bí ẩn của nó ra ánh sáng. Đây là cuộc khám nghiệm mà ta chưa từng thấy. Bằng máy chụp cắt lớp hiện đại nhất thế giới, ta sẽ hé mở hầm mộ của xác ướp khủng long.

    Chia sẻ : HoaiTrung - khoHD
    [​IMG]
    [​IMG]

    [​IMG]

    [​IMG]
    [​IMG]
    [​IMG]
    Media Info
    Mã:
     Dino.Autospy.2007.1080i.HDTV.MPEG2.0-KhoHD.mkv
    Format                                   : Matroska
    Format version                           : Version 4 / Version 2
    File size                                : 2.68 GiB
    Duration                                 : 47mn 0s
    Overall bit rate                         : 8 162 Kbps
    Encoded date                             : UTC 2014-04-30 13:51:55
    Writing application                      : mkvmerge v6.9.1 ('Blue Panther') 64bit built on Apr 18 2014 18:23:38
    Writing library                          : libebml v1.3.0 + libmatroska v1.4.1
    Video
    ID                                       : 1
    Format                                   : AVC
    Format/Info                              : Advanced Video Codec
    Format profile                           : Main@L4.0
    Format settings, CABAC                   : Yes
    Format settings, ReFrames                : 4 frames
    Codec ID                                 : V_MPEG4/ISO/AVC
    Duration                                 : 47mn 0s
    Bit rate                                 : 7 807 Kbps
    Width                                    : 1 920 pixels
    Height                                   : 1 080 pixels
    Display aspect ratio                     : 16:9
    Frame rate mode                          : Constant
    Frame rate                               : 25.000 fps
    Color space                              : YUV
    Chroma subsampling                       : 4:2:0
    Bit depth                                : 8 bits
    Scan type                                : Interlaced
    Scan order                               : Top Field First
    Bits/(Pixel*Frame)                       : 0.151
    Stream size                              : 2.56 GiB (96%)
    Default                                  : Yes
    Forced                                   : No
    Color primaries                          : BT.709
    Transfer characteristics                 : BT.709
    Matrix coefficients                      : BT.709
    Audio
    ID                                       : 2
    Format                                   : MPEG Audio
    Format version                           : Version 1
    Format profile                           : Layer 2
    Codec ID                                 : A_MPEG/L2
    Codec ID/Hint                            : MP2
    Duration                                 : 47mn 0s
    Bit rate mode                            : Constant
    Bit rate                                 : 192 Kbps
    Channel(s)                               : 2 channels
    Sampling rate                            : 48.0 KHz
    Compression mode                         : Lossy
    Stream size                              : 64.6 MiB (2%)
    Language                                 : English
    Default                                  : Yes
    Forced                                   : No
    
    DOWNLOAD PHIM VÀ PHỤ ĐỀ VIỆT NGỮ
    Nhấn nút Cảm ơn (dưới chân bài) để thấy link!


     
    Chỉnh sửa cuối: 14/8/19
  2. Le Sam

    Le Sam Member

    Tham gia ngày:
    27/7/19
    Bài viết:
    34
    Đã được cảm ơn:
    31
    Ad ơi, phim này còn ko cho mình xin bản 1080, thank!
     
    Chỉnh sửa cuối: 13/8/19
  3. tlamhp

    tlamhp Well-Known Member

    Tham gia ngày:
    23/7/12
    Bài viết:
    708
    Đã được cảm ơn:
    409
    Giới tính:
    Nam
    Nghề nghiệp:
    Housekeeper
    Nơi ở:
    Oakland CA USA
    Re-up lại bằng Fshare đi bác Hoài Trung ơi.
     
    Le Sam and hoaitrung like this.
  4. laodaidu

    laodaidu Active Member

    Tham gia ngày:
    26/3/09
    Bài viết:
    376
    Đã được cảm ơn:
    30
    Đâu có link để down đâu bác chủ?
     
  5. hoaitrung

    hoaitrung Moderator Thành viên BQT

    Tham gia ngày:
    13/12/09
    Bài viết:
    2,805
    Đã được cảm ơn:
    85,930
    Giới tính:
    Nam
    Nghề nghiệp:
    HD Documentaries
    Nơi ở:
    Việt Nam
    Đã reup rồi, hơi bận một chút, bà con thông cảm nha!
     
    Le Sam and tlamhp like this.

Chia sẻ trang này