[MULTI] Discovery Channel SUV Superbuild Season 01 [2018] 1080i HDTV WebDL x264 AC3

Thảo luận trong 'Phim tài liệu - Documentaries' bắt đầu bởi iscol, 12/1/19.

  1. iscol

    iscol Moderator

    Tham gia ngày:
    1/9/09
    Bài viết:
    4,611
    Đã được cảm ơn:
    8,132
    Điểm thành tích:
    113
    Giới tính:
    Nam
    Nghề nghiệp:
    Computer
    Nơi ở:
    Việt Nam
    Tiền:
    1,980 CR
    [​IMG]
    Discovery Channel SUV Superbuild Season 01 [2018] 1080i HDTV WebDL x264 AC3
    It is a machine that put Land Rover on the map, the ride that saved Porsche from disaster, and the cornerstone to Jaguars’ most recent revival - Welcome the new age of the SUV! Some haul tons of material, others battle for supermarket parking lot supremacy, a few fly down racetracks at remarkable speeds, and a handful harken back to the genres truck like roots. All told there is no genre in the automotive world that is more versatile or contested. Yet no matter whether they’re climbing the highest peak or wading through traffic on the way to school, every single SUV shares an ability to move a family of four in comfort while also being Swiss-Army knife for daily life. The Sport Utility Vehicle phenomenon is so strong that it’s not only altering our culture but also the automotive world itself. Today, if you sell cars on the world stage you simply can’t survive without an awesome SUV in your line up. To win the hearts and minds of consumers these monster people haulers are transforming into technological wonders replete with the latest innovations, ultra extreme engineering, and mind blowing high-performance that would have been unimaginable in this type of machine just twenty years ago. “SUV Superbuild” is a ten part series that dives deep into the rich history behind these machines, the unique design challenges they face, and the extreme engineering solutions they require, while showcasing the unique national pride and heartfelt passion that brings them to life.

    Season 01 Episodes List:

    S01 E01 Range Rover
    S01 E02 Jaguar F-Pace

    S01 E03 Mercedes G-Class

    S01 E04 Maserati
    S01 E05 Bentley Bentayga
    S01 E06 Chevrolet Suburban
    S01 E07 Alfa Romero Stelvio
    S01 E08 VW Atlas
    S01 E09 Porsche Cayenne
    S01 E10 Lamborghini Urus

    File Info

    Mã:
    
    
    General
    
    
    Unique ID  : 303766044249748812550615959384505290506 (0xE487364A46B555304C3C1B12CDD98F0A)
    Complete name  : SUV Superbuild\SUV Superbuild E01 Range Rover SVAutobiography.mkv
    Format  : Matroska
    Format version  : Version 4
    File size  : 1 016 MiB
    Duration  : 43 min 25 s
    Overall bit rate  : 3 270 kb/s
    Encoded date  : UTC 2019-01-11 22:33:43
    Writing application  : mkvmerge v30.1.0 ('Forever And More') 32-bit
    Writing library  : libebml v1.3.6 + libmatroska v1.4.9
    Video
    ID  : 1
    Format  : AVC
    Format/Info  : Advanced Video Codec
    Format profile  : High@L4
    Format settings  : CABAC / 4 Ref Frames
    Format settings, CABAC  : Yes
    Format settings, ReFrames  : 4 frames
    Codec ID  : V_MPEG4/ISO/AVC
    Duration  : 43 min 25 s
    Bit rate  : 2 948 kb/s
    Width  : 1 920 pixels
    Height  : 1 080 pixels
    Display aspect ratio  : 16:9
    Frame rate mode  : Constant
    Frame rate  : 25.000 FPS
    Color space  : YUV
    Chroma subsampling  : 4:2:0
    Bit depth  : 8 bits
    Scan type  : Progressive
    Bits/(Pixel*Frame)  : 0.057
    Stream size  : 916 MiB (90%)
    Language  : English
    Default  : Yes
    Forced  : No
    Audio
    ID  : 2
    Format  : AC-3
    Format/Info  : Audio Coding 3
    Commercial name  : Dolby Digital
    Codec ID  : A_AC3
    Duration  : 43 min 25 s
    Bit rate mode  : Constant
    Bit rate  : 320 kb/s
    Channel(s)  : 6 channels
    Channel layout  : L R C LFE Ls Rs
    Sampling rate  : 48.0 kHz
    Frame rate  : 31.250 FPS (1536 SPF)
    Bit depth  : 16 bits
    Compression mode  : Lossy
    Delay relative to video  : 16 ms
    Stream size  : 99.4 MiB (10%)
    Language  : English
    Service kind  : Complete Main
    Default  : Yes
    Forced  : No
    
    Screenshot

    [​IMG]
    Download

    Fshare.vn


    https://www.fshare.vn/folder/17JWM7T7AKPK
     
    Chỉnh sửa cuối: 12/1/19
    #1 +2 CR
    sawath, tinhyeu44, hoatieu2 and 6 others like this.
  2. lumionken

    lumionken Member

    Tham gia ngày:
    25/7/13
    Bài viết:
    32
    Đã được cảm ơn:
    11
    Điểm thành tích:
    8
    Tiền:
    515 CR
    link died rồi Chủ thớt .
    Úp lại dùm . Thank you
     
    iscol cảm ơn bài này.
  3. iscol

    iscol Moderator

    Tham gia ngày:
    1/9/09
    Bài viết:
    4,611
    Đã được cảm ơn:
    8,132
    Điểm thành tích:
    113
    Giới tính:
    Nam
    Nghề nghiệp:
    Computer
    Nơi ở:
    Việt Nam
    Tiền:
    1,980 CR
    Đã fix link em đã test ok
     
    #3 +1 CR
    Hòa Thượng cảm ơn bài này.
  4. Hòa Thượng

    Hòa Thượng Well-Known Member

    Tham gia ngày:
    20/8/16
    Bài viết:
    262
    Đã được cảm ơn:
    288
    Điểm thành tích:
    63
    Giới tính:
    Nam
    Tiền:
    251 CR
    Thiếu S01 E03 Mercedes G-Class An ơi
     
    iscol cảm ơn bài này.
  5. phan phong tan

    phan phong tan Well-Known Member

    Tham gia ngày:
    20/5/11
    Bài viết:
    700
    Đã được cảm ơn:
    416
    Điểm thành tích:
    63
    Giới tính:
    Nam
    Nghề nghiệp:
    Chuyên viên kinh tế
    Nơi ở:
    Việt Nam
    Tiền:
    1,374 CR
    Cám ơn iscol nhe, đã thiệt đó em ơi. Hẹn gặp 30/4 nhé :D
     
    iscol cảm ơn bài này.
  6. iscol

    iscol Moderator

    Tham gia ngày:
    1/9/09
    Bài viết:
    4,611
    Đã được cảm ơn:
    8,132
    Điểm thành tích:
    113
    Giới tính:
    Nam
    Nghề nghiệp:
    Computer
    Nơi ở:
    Việt Nam
    Tiền:
    1,980 CR
    Bộ này đã chiếu trên Discovery China được mấy tháng rồi nhưng do nguồn download từ các trang China nên em mò mãi tới hôm nay mới đăng ký link downloa thành công
     
    #6 +1 CR
    phan phong tan cảm ơn bài này.
  7. phan phong tan

    phan phong tan Well-Known Member

    Tham gia ngày:
    20/5/11
    Bài viết:
    700
    Đã được cảm ơn:
    416
    Điểm thành tích:
    63
    Giới tính:
    Nam
    Nghề nghiệp:
    Chuyên viên kinh tế
    Nơi ở:
    Việt Nam
    Tiền:
    1,374 CR
    Chào buổi sáng nhé. Cực cho em rồi. Cám ơn em rất nhiều vì đã bỏ công sức cho ACE nhe. Anh thích thể loại phim này lắm. Trước đây anh nhớ cũng có một bộ như loại này. Giờ họ làm lại bộ mới năm 2018 hả iscol.
     
  8. iscol

    iscol Moderator

    Tham gia ngày:
    1/9/09
    Bài viết:
    4,611
    Đã được cảm ơn:
    8,132
    Điểm thành tích:
    113
    Giới tính:
    Nam
    Nghề nghiệp:
    Computer
    Nơi ở:
    Việt Nam
    Tiền:
    1,980 CR
    Bộ mà kênh Discovery chiếu năm 2016 là Supercar Superbuild gồm 2 season còn năm 2018 là SUV Superbuild. Cả 2 đều có cùng format.
     
    #8 +1 CR
  9. phan phong tan

    phan phong tan Well-Known Member

    Tham gia ngày:
    20/5/11
    Bài viết:
    700
    Đã được cảm ơn:
    416
    Điểm thành tích:
    63
    Giới tính:
    Nam
    Nghề nghiệp:
    Chuyên viên kinh tế
    Nơi ở:
    Việt Nam
    Tiền:
    1,374 CR
    Ồ vậy hả, cám ơn iscol nhe. Tối nay anh về sẽ cày vài tập liền :D:D:D
     

Chia sẻ trang này