[MULTI] DisneyNature's Born in China [2016] 1080p Blurip x264 DTS AC3 ViE

Thảo luận trong 'Phim tài liệu - Documentaries' bắt đầu bởi iscol, 23/1/19.

  1. iscol

    iscol Well-Known Member

    Tham gia ngày:
    1/9/09
    Bài viết:
    4,551
    Đã được cảm ơn:
    9,773
    Giới tính:
    Nam
    Nghề nghiệp:
    Computer
    Nơi ở:
    Việt Nam
    [​IMG]
    DisneyNature's Born in China [2016] 1080p Blurip x264 DTS AC3 ViE
    File Info
    Mã:
    General
    Unique ID  : 208554387478299123256468181194364135029 (0x9CE61D2E4D98F417A39937112A77A675)
    Complete name  : DisneyNature's Born in China ViE.mkv
    
    
    	

    Format : Matroska

    Format version : Version 4 File size : 6.95 GiB Duration : 1 h 19 min Overall bit rate : 12.5 Mb/s Encoded date : UTC 2019-01-22 16:57:24 Writing application : mkvmerge v30.1.0 ('Forever And More') 32-bit Writing library : libebml v1.3.6 + libmatroska v1.4.9 Video ID : 1 Format : AVC Format/Info : Advanced Video Codec Format profile : High@L4.1 Format settings : CABAC / 4 Ref Frames Format settings, CABAC : Yes Format settings, ReFrames : 4 frames Codec ID : V_MPEG4/ISO/AVC Duration : 1 h 19 min Bit rate : 10.3 Mb/s Width : 1 920 pixels Height : 1 080 pixels Display aspect ratio : 16:9 Frame rate mode : Constant Frame rate : 23.976 (24000/1001) FPS Color space : YUV Chroma subsampling : 4:2:0 Bit depth : 8 bits Scan type : Progressive Bits/(Pixel*Frame) : 0.207 Stream size : 5.72 GiB (82%) Writing library : x264 core 152 r2851 ba24899 Encoding settings : cabac=1 / ref=4 / deblock=1:-3:-3 / analyse=0x3:0x113 / me=umh / subme=8 / psy=1 / psy_rd=1.00:0.00 / mixed_ref=1 / me_range=16 / chroma_me=1 / trellis=1 / 8x8dct=1 / cqm=0 / deadzone=21,11 / fast_pskip=1 / chroma_qp_offset=-2 / threads=12 / lookahead_threads=2 / sliced_threads=0 / nr=0 / decimate=1 / interlaced=0 / bluray_compat=0 / constrained_intra=0 / bframes=3 / b_pyramid=2 / b_adapt=2 / b_bias=0 / direct=3 / weightb=1 / open_gop=0 / weightp=2 / keyint=240 / keyint_min=24 / scenecut=40 / intra_refresh=0 / rc_lookahead=50 / rc=2pass / mbtree=1 / bitrate=10314 / ratetol=1.0 / qcomp=0.60 / qpmin=0 / qpmax=69 / qpstep=4 / cplxblur=20.0 / qblur=0.5 / vbv_maxrate=62500 / vbv_bufsize=78125 / nal_hrd=none / filler=0 / ip_ratio=1.40 / aq=1:1.00 Language : English Default : Yes Forced : No Audio #1 ID : 2 Format : AC-3 Format/Info : Audio Coding 3 Commercial name : Dolby Digital Codec ID : A_AC3 Duration : 1 h 19 min Bit rate mode : Constant Bit rate : 320 kb/s Channel(s) : 6 channels Channel layout : L R C LFE Ls Rs Sampling rate : 48.0 kHz Frame rate : 31.250 FPS (1536 SPF) Bit depth : 16 bits Compression mode : Lossy Stream size : 182 MiB (3%) Language : Vietnamese Service kind : Complete Main Default : Yes Forced : No Audio #2 ID : 3 Format : DTS Format/Info : Digital Theater Systems Codec ID : A_DTS Duration : 1 h 19 min Bit rate mode : Constant Bit rate : 1 509 kb/s Channel(s) : 6 channels Channel layout : C L R Ls Rs LFE Sampling rate : 48.0 kHz Frame rate : 93.750 FPS (512 SPF) Bit depth : 24 bits Compression mode : Lossy Stream size : 858 MiB (12%) Language : English Default : No Forced : No Audio #3 ID : 4 Format : AC-3 Format/Info : Audio Coding 3 Commercial name : Dolby Digital Codec ID : A_AC3 Duration : 1 h 19 min Bit rate mode : Constant Bit rate : 384 kb/s Channel(s) : 6 channels Channel layout : L R C LFE Ls Rs Sampling rate : 48.0 kHz Frame rate : 31.250 FPS (1536 SPF) Bit depth : 16 bits Compression mode : Lossy Stream size : 218 MiB (3%) Language : English Service kind : Complete Main Default : No Forced : No Text #1 ID : 5 Format : UTF-8 Codec ID : S_TEXT/UTF8 Codec ID/Info : UTF-8 Plain Text Duration : 1 h 14 min Bit rate : 62 b/s Count of elements : 732 Stream size : 34.2 KiB (0%) Language : Vietnamese Default : Yes Forced : No Text #2 ID : 6 Format : UTF-8 Codec ID : S_TEXT/UTF8 Codec ID/Info : UTF-8 Plain Text Duration : 1 h 14 min Bit rate : 40 b/s Count of elements : 636 Stream size : 22.2 KiB (0%) Language : English Default : No Forced : No Text #3 ID : 7 Format : UTF-8 Codec ID : S_TEXT/UTF8 Codec ID/Info : UTF-8 Plain Text Duration : 1 h 15 min Bit rate : 44 b/s Count of elements : 818 Stream size : 24.9 KiB (0%) Language : English Default : No Forced : No Text #4 ID : 8 Format : UTF-8 Codec ID : S_TEXT/UTF8 Codec ID/Info : UTF-8 Plain Text Duration : 1 h 15 min Bit rate : 53 b/s Count of elements : 890 Stream size : 29.7 KiB (0%) Language : English Default : No Forced : No Menu 00:00:00.000 : en:00:00:00.000 00:02:39.159 : en:00:02:39.159 00:07:52.847 : en:00:07:52.847 00:10:37.929 : en:00:10:37.929 00:12:32.710 : en:00:12:32.710 00:13:50.496 : en:00:13:50.496 00:17:06.525 : en:00:17:06.525 00:21:09.894 : en:00:21:09.894 00:24:08.906 : en:00:24:08.906 00:30:18.358 : en:00:30:18.358 00:34:25.730 : en:00:34:25.730 00:38:23.801 : en:00:38:23.801 00:40:32.805 : en:00:40:32.805 00:43:01.913 : en:00:43:01.913 00:49:54.408 : en:00:49:54.408 00:53:39.842 : en:00:53:39.842 01:02:19.361 : en:01:02:19.361 01:07:02.852 : en:01:07:02.852 01:11:43.299 : en:01:11:43.299
    [/code]
     
    Chỉnh sửa cuối: 23/1/19
  2. ruandequan

    ruandequan Well-Known Member

    Tham gia ngày:
    17/7/10
    Bài viết:
    184
    Đã được cảm ơn:
    2,292
    Giới tính:
    Nam
    Cảm ơn bác Iscol nhiều lắm, bác sửa lại chút cho AE dễ thấy link và nhấn nút Thanks!
     

Chia sẻ trang này